<?xml version="1.0" standalone="no"?>
<!DOCTYPE svg PUBLIC "-//W3C//DTD SVG 1.1//EN" "http://www.w3.org/Graphics/SVG/1.1/DTD/svg11.dtd" >
<svg>
<metadata>
Created by FontForge 20090914 at Wed Oct  1 04:40:59 2014
 By www-data
</metadata>
<defs>
<font id="DINAlternate-Bold" horiz-adv-x="1112" >
  <font-face 
    font-family="DIN Alternate"
    font-weight="700"
    font-stretch="normal"
    units-per-em="2048"
    panose-1="2 2 5 0 0 0 0 0 0 0"
    ascent="1638"
    descent="-410"
    x-height="1067"
    cap-height="1458"
    bbox="-236 -422 2372 2079"
    underline-thickness="87"
    underline-position="-92"
    unicode-range="U+0020-U+2219"
  />
<missing-glyph horiz-adv-x="1536" 
d="M256 0v1280h1024v-1280h-1024zM1247 33v1214h-958v-1214h958z" />
    <glyph glyph-name=".notdef" horiz-adv-x="1536" 
d="M256 0v1280h1024v-1280h-1024zM1247 33v1214h-958v-1214h958z" />
    <glyph glyph-name="space" unicode=" " horiz-adv-x="475" 
 />
    <glyph glyph-name="exclam" unicode="!" horiz-adv-x="711" 
d="M559 1458l-67 -1001h-197l-66 1001h330zM555 154c0 -44.667 -15.833 -82.5 -47.5 -113.5s-69.834 -46.5 -114.501 -46.5c-44 0 -81.667 15.667 -113 47s-47 69 -47 113s15.5 81.833 46.5 113.5s68.833 47.5 113.5 47.5c22.667 0 43.834 -4.33301 63.501 -13
s36.667 -20.167 51 -34.5s25.833 -31 34.5 -50s13 -40.167 13 -63.5z" />
    <glyph glyph-name="quotedbl" unicode="&#x22;" horiz-adv-x="950" 
d="M809 1026h-248v432h248v-432zM389 1026h-250v432h250v-432z" />
    <glyph glyph-name="numbersign" unicode="#" horiz-adv-x="1415" 
d="M1317 860h-182l-33 -221h141v-250h-182l-62 -389h-280l63 389h-237l-62 -389h-280l61 389h-141v250h182l33 221h-143v248h182l57 362h281l-58 -362h238l57 362h279l-55 -362h141v-248zM854 860h-236l-34 -221h237z" />
    <glyph glyph-name="dollar" unicode="$" horiz-adv-x="1268" 
d="M1169 430c0 -81.333 -18.668 -153.002 -56.001 -215.002s-89.333 -111.5 -156 -148.5s-142.667 -60.5 -228 -70.5v-229h-207v221c-67.333 2 -129 9.66699 -185 23s-109.333 34.333 -160 63s-96.667 64 -138 106l184 185c77.333 -77.333 186 -118.333 326 -123v370l-66 9
c-122.667 16 -216.667 56.667 -282 122c-70 70 -105 165 -105 285c0 58.667 9.5 113 28.5 163s46.833 94.333 83.5 133s81.834 70.334 135.501 95.001s113.167 40.334 178.5 47.001v185h207v-183c84 -5.33301 159 -21.5 225 -48.5s125.667 -66.833 179 -119.5l-181 -178
c-57.333 56.667 -141.333 89.667 -252 99v-357l78 -12c125.333 -20 218.333 -58.333 279 -115c74.667 -70 112 -172.333 112 -307zM548.999 876.998v342.001c-57.333 -8 -101.333 -28.667 -132 -62s-46 -73 -46 -119c0 -42.667 14.333 -77.334 43 -104.001
c30.667 -29.333 75.667 -48.333 135 -57zM890.999 421.999c0 54 -14.999 94.999 -44.999 122.999c-17.333 17.333 -36.333 29 -57 35s-50.334 12 -89.001 18v-352c61.333 6.66699 108.5 25.334 141.5 56.001s49.5 70.667 49.5 120z" />
    <glyph glyph-name="percent" unicode="%" horiz-adv-x="1737" 
d="M1630 268c0 -88.667 -28.498 -157.501 -85.498 -206.501s-127.5 -73.5 -211.5 -73.5c-84.667 0 -155.334 24.667 -212.001 74s-85 118 -85 206v203c0 88 28.167 156.833 84.5 206.5s127.166 74.5 212.499 74.5c54 0 103.667 -10.833 149 -32.5s81.333 -53.667 108 -96
s40 -93.166 40 -152.499v-203zM1319 1458l-690 -1458h-209l690 1458h209zM700.002 986.999c0 -88.667 -28.5 -157.5 -85.5 -206.5s-127.5 -73.5 -211.5 -73.5c-84.667 0 -155.334 24.667 -212.001 74s-85 118 -85 206v203c0 88 28.333 156.667 85 206s127.334 74 212.001 74
c84 0 154.5 -24.5 211.5 -73.5s85.5 -117.833 85.5 -206.5v-203zM1438 275.999v187c0 38 -9.16699 67 -27.5 87s-44.166 30 -77.499 30c-69.333 0 -104 -39 -104 -117v-187c0 -77.333 34.667 -116 104 -116c33.333 0 59.166 10 77.499 30s27.5 48.667 27.5 86z
M508.002 994.999l0.000976562 187c0 38 -9 66.833 -27 86.5s-44 29.5 -78 29.5c-69.333 0 -104 -38.667 -104 -116v-187c0 -37.333 9.16699 -66 27.5 -86s43.833 -30 76.5 -30c33.333 0 59.166 10 77.499 30s27.5 48.667 27.5 86z" />
    <glyph glyph-name="ampersand" unicode="&#x26;" horiz-adv-x="1477" 
d="M1425 0h-337.999l-106 127c-35.333 -28 -67.166 -51 -95.499 -69s-66 -34.167 -113 -48.5s-103.167 -21.5 -168.5 -21.5c-103.333 0 -191.333 17.5 -264 52.5s-127 86 -163 153s-54 145.833 -54 236.5c0 84 24 157.167 72 219.5s111.333 119.5 190 171.5
c-26 30 -49.333 59.333 -70 88s-38.334 61.834 -53.001 99.501s-22 78.167 -22 121.5c0 102 34.833 184.167 104.5 246.5s164.5 93.5 284.5 93.5c75.333 0 141 -14.667 197 -44s99.167 -70.333 129.5 -123s45.5 -111.667 45.5 -177
c0 -96.667 -49.667 -181.334 -149 -254.001c-4.66699 -4 -12.834 -10.167 -24.501 -18.5l-37.5 -26.5l-42 -30l245 -291c45.333 60.667 70 146 74 256h252c-5.33301 -99.333 -20.333 -185.833 -45 -259.5s-61.667 -138.167 -111 -193.5zM750.001 1124
c0 35.333 -11.001 63.999 -33.001 85.999s-51.333 33 -88 33c-38 0 -67.667 -10.833 -89 -32.5s-32 -50.5 -32 -86.5c0 -23.333 6.83301 -45.333 20.5 -66s38.834 -53 75.501 -97c9.33301 4.66699 20.333 11.334 33 20.001l29 20c56 39.333 84 80.333 84 123zM819 314.999
l-291.001 342c-49.333 -33.333 -86.166 -66.833 -110.499 -100.5s-36.5 -74.5 -36.5 -122.5c0 -59.333 21.167 -108.333 63.5 -147s94.833 -58 157.5 -58c42 0 80.167 6.83301 114.5 20.5s68.5 35.5 102.5 65.5z" />
    <glyph glyph-name="quotesingle" unicode="'" horiz-adv-x="530" 
d="M391 1026h-252v432h252v-432z" />
    <glyph glyph-name="parenleft" unicode="(" horiz-adv-x="688" 
d="M575 -14l-178.002 -179l-61 63c-26 26.667 -47.833 50.834 -65.5 72.501s-35.5 46.834 -53.5 75.501c-22 38.667 -36.333 79.5 -43 122.5s-10 90.5 -10 142.5v893c0 114.667 17.667 202.667 53 264c14.667 24.667 31.334 48.5 50.001 71.5s41.334 48.167 68.001 75.5
l62 64l178 -178c-55.333 -56 -93.333 -102.167 -114 -138.5s-31 -93.5 -31 -171.5v-868c0 -78 10.333 -135.333 31 -172c10 -16.667 20.333 -32.334 31 -47.001s22.167 -28.334 34.5 -41.001z" />
    <glyph glyph-name="parenright" unicode=")" horiz-adv-x="688" 
d="M524 283c0 -56.667 -3.5 -105.829 -10.5 -147.496s-21.167 -80.834 -42.5 -117.501c-19.333 -32.667 -43 -64.834 -71 -96.501s-64.333 -69.834 -109 -114.501l-180 181c35.333 35.333 60 61.166 74 77.499s27.333 35.5 40 57.5c20.667 36.667 31 94 31 172v868
c0 78 -10.333 135.333 -31 172c-14.667 25.333 -30.834 48 -48.501 68s-39.5 42.333 -65.5 67l180 181c44.667 -44.667 80.834 -82.5 108.501 -113.5s51.5 -63.5 71.5 -97.5c35.333 -61.333 53 -149.333 53 -264v-893z" />
    <glyph glyph-name="asterisk" unicode="*" horiz-adv-x="1012" 
d="M901 942l-94 -162l-215 135l8 -256h-188l10 256l-217 -135l-92 162l225 119l-225 119l92 163l217 -137l-10 256h188l-8 -256l215 137l94 -163l-227 -119z" />
    <glyph glyph-name="plus" unicode="+" 
d="M1010 442h-328v-327h-250v327h-330v250h330v328h250v-328h328v-250z" />
    <glyph glyph-name="comma" unicode="," horiz-adv-x="571" 
d="M432 -113l-293 -225v629h293v-404z" />
    <glyph glyph-name="hyphen" unicode="-" horiz-adv-x="872" 
d="M752 461h-631v248h631v-248z" />
    <glyph glyph-name="period" unicode="." horiz-adv-x="604" 
d="M481 172c0 -32 -8.16699 -61.667 -24.5 -89s-38.5 -49 -66.5 -65s-57.667 -24 -89 -24c-48 0 -89.667 17.667 -125 53s-53 77 -53 125c0 49.333 17.667 91.333 53 126s77 52 125 52c31.333 0 61 -8 89 -24s50.167 -37.667 66.5 -65s24.5 -57 24.5 -89z" />
    <glyph glyph-name="slash" unicode="/" horiz-adv-x="825" 
d="M834 1610l-584 -1762h-250l584 1762h250z" />
    <glyph glyph-name="zero" unicode="0" horiz-adv-x="1114" 
d="M1001 422c0 -66.667 -11.6641 -127.498 -34.9971 -182.498s-55.5 -101 -96.5 -138s-88.5 -65.167 -142.5 -84.5s-110.667 -29 -170 -29s-115.833 9.66699 -169.5 29s-101.334 47.833 -143.001 85.5s-74 83.667 -97 138s-34.5 114.833 -34.5 181.5v379
c0 68 11.667 129 35 183s55.5 99.667 96.5 137s88.5 65.666 142.5 84.999s110.667 29 170 29s116.166 -9.66699 170.499 -29s101.666 -47.333 141.999 -84s72.333 -82.334 96 -137.001s35.5 -116 35.5 -184v-379zM735.003 424.002v373c0 40 -7.5 75 -22.5 105
s-35.833 53 -62.5 69s-57.667 24 -93 24c-52 0 -94.667 -18 -128 -54s-50 -84 -50 -144v-373c0 -60 16.667 -107.833 50 -143.5s76 -53.5 128 -53.5c34.667 0 65.5 8 92.5 24s48 38.667 63 68s22.5 64.333 22.5 105z" />
    <glyph glyph-name="one" unicode="1" horiz-adv-x="897" 
d="M674 0h-266v936l-299 -258v287l299 258h266v-1223z" />
    <glyph glyph-name="two" unicode="2" horiz-adv-x="1122" 
d="M1004 0l-915.999 -0.00195312v240l477 407c50 43.333 86.833 82 110.5 116s35.5 69 35.5 105c0 50.667 -16.167 91.334 -48.5 122.001s-74.833 46 -127.5 46c-50 0 -92.333 -15 -127 -45s-52 -75 -52 -135h-266c0 84.667 19.5 158.834 58.5 222.501
s92.5 112.5 160.5 146.5s143.333 51 226 51c62.667 0 120.834 -9.33301 174.501 -28s100.5 -45.667 140.5 -81s71.167 -78.333 93.5 -129s33.5 -106 33.5 -166c0 -50 -10.833 -96.5 -32.5 -139.5s-51.334 -84.667 -89.001 -125s-83.834 -84.5 -138.501 -132.5l-264 -235h551
v-240z" />
    <glyph glyph-name="three" unicode="3" horiz-adv-x="1096" 
d="M995 186c0 -94 -20.666 -173.668 -61.999 -239.001s-97.166 -114.5 -167.499 -147.5s-148.166 -49.5 -233.499 -49.5c-59.333 0 -117 8.5 -173 25.5s-105.667 43 -149 78s-77.666 80 -102.999 135s-38.333 118.833 -39 191.5h266c2 -62 21.667 -109.167 59 -141.5
s83.666 -48.5 138.999 -48.5c58.667 0 106.167 17.5 142.5 52.5s54.5 85.167 54.5 150.5c0 61.333 -18 110 -54 146s-86.333 54 -151 54h-39v232h39c61.333 0 107.5 17 138.5 51s46.5 78.333 46.5 133c0 59.333 -17.167 105.166 -51.5 137.499s-76.833 48.5 -127.5 48.5
s-92.667 -15.5 -126 -46.5s-51.333 -74.167 -54 -129.5h-266c2 64.667 14.667 122.834 38 174.501s55.166 95.334 95.499 131.001s87.5 63 141.5 82s111 28.5 171 28.5c85.333 0 161.666 -17.5 228.999 -52.5s120.166 -84.667 158.499 -149s57.5 -136.5 57.5 -216.5
c0 -140 -56 -239.667 -168 -299c57.333 -30 103 -72.167 137 -126.5s51 -122.833 51 -205.5z" />
    <glyph glyph-name="four" unicode="4" horiz-adv-x="1208" 
d="M1126 61h-163v-313h-254v313h-629v252l500 1000h284l-497 -1000h342v301h254v-301h163v-252z" />
    <glyph glyph-name="five" unicode="5" horiz-adv-x="1128" 
d="M1022 256c0 -88 -8.99902 -161.667 -26.999 -221s-52 -114 -102 -164c-79.333 -79.333 -186.666 -119 -321.999 -119c-72 0 -135.5 10.833 -190.5 32.5s-99.833 49.834 -134.5 84.501c-41.333 41.333 -70.333 86.333 -87 135s-27.334 104.667 -32.001 168h266
c15.333 -120 74.666 -180 177.999 -180c54 0 96.333 15.667 127 47c38.667 38.667 58 111 58 217c0 88 -13.833 153.667 -41.5 197s-73.167 65 -136.5 65c-92 0 -151 -39.667 -177 -119h-243v824h831v-240h-590v-313c21.333 20.667 51.5 38 90.5 52s81.833 21 128.5 21
c40 0 77 -4 111 -12s64.5 -19.333 91.5 -34s50.5 -32 70.5 -52c51.333 -50.667 86 -107.834 104 -171.501s27 -136.167 27 -217.5z" />
    <glyph glyph-name="six" unicode="6" horiz-adv-x="1124" 
d="M1040 461c0 -97.333 -20.666 -181.833 -61.999 -253.5s-98.166 -126.167 -170.499 -163.5s-153.833 -56 -244.5 -56c-66 0 -128.333 10.167 -187 30.5s-109.834 50.5 -153.501 90.5s-77.667 89.167 -102 147.5s-36.5 124.5 -36.5 198.5
c0 80.667 11.167 156.167 33.5 226.5s58.166 149.833 107.499 238.5l318 571h284l-348 -608c40.667 20 92.667 30 156 30c72 0 139 -17.667 201 -53s111.5 -87.333 148.5 -156s55.5 -149.667 55.5 -243zM774.001 457c0 48 -9.00195 90 -27.002 126
s-43.167 63.833 -75.5 83.5s-69.166 29.5 -110.499 29.5c-62.667 0 -113.5 -21.5 -152.5 -64.5s-58.5 -101.167 -58.5 -174.5c0 -74 19.667 -132.5 59 -175.5s90 -64.5 152 -64.5c62.667 0 113.834 21.5 153.501 64.5s59.5 101.5 59.5 175.5z" />
    <glyph glyph-name="seven" unicode="7" horiz-adv-x="1133" 
d="M1061 983l-539 -1225h-286l538 1225h-428v-229h-254v469h969v-240z" />
    <glyph glyph-name="eight" unicode="8" horiz-adv-x="1147" 
d="M1040 424c0 -91.333 -20.5 -169.832 -61.5 -235.499s-97.167 -115.5 -168.5 -149.5s-150.333 -51 -237 -51s-165.667 17 -237 51s-127.5 83.833 -168.5 149.5s-61.5 144.167 -61.5 235.5c0 135.333 61.667 244.666 185 327.999c-46.667 32.667 -85.667 74 -117 124
s-47 109.667 -47 179c0 83.333 19.833 156.5 59.5 219.5s93.5 111.333 161.5 145s143 50.5 225 50.5c82.667 0 158 -16.833 226 -50.5s121.833 -82 161.5 -145s59.5 -136.167 59.5 -219.5c0 -71.333 -15.667 -131.5 -47 -180.5s-70.333 -89.833 -117 -122.5
c122.667 -82.667 184 -192 184 -328zM754 1047c0 52 -16.999 95.667 -50.999 131s-77.333 53 -130 53c-52 0 -95 -17.667 -129 -53s-51 -79 -51 -131c0 -53.333 17.167 -97.5 51.5 -132.5s77.166 -52.5 128.499 -52.5c52 0 95.167 17.5 129.5 52.5s51.5 79.167 51.5 132.5z
M774.001 428.001c0 37.333 -8.83398 71.5 -26.501 102.5s-42.167 55.5 -73.5 73.5s-65 27 -101 27c-56.667 0 -104.167 -19.833 -142.5 -59.5s-57.5 -87.5 -57.5 -143.5c0 -56.667 19.333 -104.334 58 -143.001s86 -58 142 -58c56.667 0 104.334 19.333 143.001 58
s58 86.334 58 143.001z" />
    <glyph glyph-name="nine" unicode="9" horiz-adv-x="1124" 
d="M1040 768c0 -56.667 -5 -109.001 -15 -157.001s-25.5 -96.833 -46.5 -146.5s-47.5 -103.5 -79.5 -161.5l-315 -571h-287l348 608c-40.667 -20.667 -92.667 -31 -156 -31c-72 0 -139.167 17.833 -201.5 53.5s-111.833 87.834 -148.5 156.501s-55 149.667 -55 243
c0 97.333 20.667 181.833 62 253.5s98.333 126.167 171 163.5s154 56 244 56c92 0 174 -18.167 246 -54.5s128.833 -89.833 170.5 -160.5s62.5 -154.667 62.5 -252zM774 765.999c0 48 -8.83203 90.333 -26.499 127s-42.5 64.667 -74.5 84s-68.667 29 -110 29
c-40.667 0 -77.334 -9.66699 -110.001 -29s-58 -47 -76 -83s-27 -78.667 -27 -128c0 -70 19.5 -127.5 58.5 -172.5s90.5 -67.5 154.5 -67.5c62 0 112.667 21.5 152 64.5s59 101.5 59 175.5z" />
    <glyph glyph-name="colon" unicode=":" horiz-adv-x="653" 
d="M530 715c0 -32 -8.00098 -61.668 -24.001 -89.001s-37.667 -49 -65 -65s-57 -24 -89 -24c-48 0 -89.667 17.333 -125 52s-53 76.667 -53 126c0 31.333 8 61 24 89s37.667 50.167 65 66.5s57 24.5 89 24.5c32.667 0 62.334 -8 89.001 -24s48.167 -38.167 64.5 -66.5
s24.5 -58.166 24.5 -89.499zM529.999 171.999c0 -48 -17.333 -89.667 -52 -125s-76.667 -53 -126 -53c-48 0 -89.667 17.667 -125 53s-53 77 -53 125c0 49.333 17.667 91.333 53 126s77 52 125 52c32 0 61.5 -7.83301 88.5 -23.5s48.667 -37.5 65 -65.5
s24.5 -57.667 24.5 -89z" />
    <glyph glyph-name="semicolon" unicode=";" horiz-adv-x="633" 
d="M530 715c0 -32 -8.00098 -61.668 -24.001 -89.001s-37.667 -49 -65 -65s-57 -24 -89 -24c-48 0 -89.667 17.333 -125 52s-53 76.667 -53 126c0 31.333 8 61 24 89s37.667 50.167 65 66.5s57 24.5 89 24.5c32.667 0 62.334 -8 89.001 -24s48.167 -38.167 64.5 -66.5
s24.5 -58.166 24.5 -89.499zM497.999 -113.001l-291 -225v629h291v-404z" />
    <glyph glyph-name="less" unicode="&#x3c;" horiz-adv-x="2103" 
d="M1839 426l-788 -791l-789 791v336l664 -670v1442h252v-1442l661 670v-336z" />
    <glyph glyph-name="equal" unicode="=" 
d="M1010 682h-908v250h908v-250zM1010 238h-908v249h908v-249z" />
    <glyph glyph-name="greater" unicode="&#x3e;" horiz-adv-x="2103" 
d="M1841 410l-663 669v-1444h-250v1444l-664 -669v335l789 789l788 -789v-335z" />
    <glyph glyph-name="question" unicode="?" horiz-adv-x="1071" 
d="M997 1061c0 -46.667 -8.5 -90.1709 -25.5 -130.504s-41.833 -82.166 -74.5 -125.499l-152 -201c-24 -31.333 -36 -66 -36 -104v-43h-267v61c0 42.667 6.16699 79.834 18.5 111.501s32.166 65.5 59.499 101.5l152 195c39.333 51.333 59 97 59 137
c0 48.667 -15 88.834 -45 120.501s-70.333 47.5 -121 47.5c-52 0 -92.333 -15.833 -121 -47.5s-43 -72.5 -43 -122.5h-266c0 82.667 19 154.834 57 216.501s89.667 109.167 155 142.5s138 50 218 50c79.333 0 151.833 -16.333 217.5 -49s117.834 -80 156.501 -142
s58 -134.667 58 -218zM737 153.996c0 -44.667 -15.833 -82.5 -47.5 -113.5s-69.834 -46.5 -114.501 -46.5c-44 0 -81.5 15.833 -112.5 47.5s-46.5 69.167 -46.5 112.5s15.333 81 46 113s68.334 48 113.001 48c24 0 45.5 -4.33301 64.5 -13s35.667 -20.167 50 -34.5
s25.833 -31 34.5 -50s13 -40.167 13 -63.5z" />
    <glyph glyph-name="at" unicode="@" horiz-adv-x="1552" 
d="M1434 -6l-247.998 5.99512v94c-35.333 -37.333 -71.666 -64.333 -108.999 -81s-83 -25 -137 -25c-108 0 -194 34 -258 102c-39.333 42.667 -65.166 91.834 -77.499 147.501s-18.5 134.167 -18.5 235.5c0 69.333 2.33301 125.5 7 168.5s13.667 81.5 27 115.5
s33.333 65.667 60 95c62 69.333 148 104 258 104c51.333 0 96.666 -8.16699 135.999 -24.5s74.666 -41.5 105.999 -75.5v92c0 91.333 -24 161 -72 209s-116.333 72 -205 72h-254c-44 0 -82.333 -5.16699 -115 -15.5s-62.667 -29.166 -90 -56.499s-46 -57.166 -56 -89.499
s-15 -72.166 -15 -119.499v-592c0 -49.333 6.33301 -87.666 19 -114.999s36.334 -56.333 71.001 -87l-184 -185c-61.333 56 -103.666 109.667 -126.999 161s-35 122 -35 212v612c0 54.667 4.16699 105.667 12.5 153s21.666 90.333 39.999 129s43.166 73.667 74.499 105
c44.667 45.333 97.667 77.5 159 96.5s136.666 28.5 225.999 28.5h295c85.333 0 159.666 -9.33301 222.999 -28s117.333 -51 162 -97c44.667 -44.667 76.667 -98.667 96 -162s29 -138.333 29 -225v-960zM1180 472.995c0 86.667 -12.666 151.999 -37.999 195.999
s-69.333 66 -132 66c-62 0 -105.5 -21.833 -130.5 -65.5s-37.5 -109.167 -37.5 -196.5s12.667 -153.166 38 -197.499s68.666 -66.5 129.999 -66.5c62 0 105.833 22.5 131.5 67.5s38.5 110.5 38.5 196.5z" />
    <glyph glyph-name="A" unicode="A" horiz-adv-x="1307" 
d="M1296 0h-297l-86 258h-518l-88 -258h-297l531 1458h223zM838 498l-179 530l-184 -530h363z" />
    <glyph glyph-name="B" unicode="B" horiz-adv-x="1348" 
d="M1227 420c0 -65.333 -10.998 -124.668 -32.998 -178.001s-52.667 -97.666 -92 -132.999s-86.333 -62.333 -141 -81s-115 -28 -181 -28h-610v1458h586c92.667 0 173.167 -16.667 241.5 -50s120.166 -80.666 155.499 -141.999s53 -133.666 53 -216.999
c0 -38.667 -5.33301 -74.167 -16 -106.5s-25.334 -62 -44.001 -89s-38.334 -49 -59.001 -66s-41 -30.167 -61 -39.5c54.667 -24.667 101.834 -63.334 141.501 -116.001s59.5 -123.334 59.5 -212.001zM922.002 1036c0 34 -7.50098 63.668 -22.501 89.001
s-36.167 44.833 -63.5 58.5s-61.666 20.5 -102.999 20.5h-278v-336h278c60 0 106.5 15.167 139.5 45.5s49.5 71.166 49.5 122.499zM942.001 433.999c0 52.667 -16.167 95.499 -48.5 128.499s-79.5 49.5 -141.5 49.5h-297v-358h297c61.333 0 108.333 16.833 141 50.5
s49 76.834 49 129.501z" />
    <glyph glyph-name="C" unicode="C" horiz-adv-x="1151" 
d="M1063 156c-56 -54.667 -115.503 -96.333 -178.503 -125s-138.833 -43 -227.5 -43c-154.667 0 -285.667 53 -393 159c-45.333 46.667 -78.166 98.167 -98.499 154.5s-32.833 115 -37.5 176s-7 144.833 -7 251.5s2.33301 190.5 7 251.5s17.167 119.667 37.5 176
s53.166 107.833 98.499 154.5c107.333 106 238.333 159 393 159c88.667 0 164.334 -14 227.001 -42s122.334 -69.667 179.001 -125l-189 -189c-34.667 36 -67.667 62.167 -99 78.5s-70.666 24.5 -117.999 24.5c-76 0 -136 -25.333 -180 -76
c-19.333 -22.667 -33.833 -47.5 -43.5 -74.5s-16.667 -67.333 -21 -121s-6.5 -125.834 -6.5 -216.501s2 -162.667 6 -216s11 -93.666 21 -120.999s24.667 -52.333 44 -75c43.333 -50 103.333 -75 180 -75c33.333 0 62.333 4 87 12s47 19.5 67 34.5s41 33.5 63 55.5z" />
    <glyph glyph-name="D" unicode="D" horiz-adv-x="1350" 
d="M1229 735v-108c0 -113.333 -9.16699 -207.5 -27.5 -282.5s-58.5 -143.5 -120.5 -205.5c-47.333 -47.333 -104 -82.333 -170 -105s-137.667 -34 -215 -34h-526v1458h526c78 0 149.667 -11.167 215 -33.5s122 -57.5 170 -105.5c62 -61.333 102.167 -128.333 120.5 -201
s27.5 -164 27.5 -274v-109zM944 735c0 78 -1.33301 139.669 -4 185.002s-8.5 83.666 -17.5 114.999s-22.167 57.666 -39.5 78.999c-48.667 60 -119.667 90 -213 90h-215v-950h215c47.333 0 88.333 7.5 123 22.5s64.667 37.5 90 67.5c13.333 16 24 35.5 32 58.5
s13.833 47.5 17.5 73.5s6.5 58.5 8.5 97.5s3 92.833 3 161.5z" />
    <glyph glyph-name="E" unicode="E" horiz-adv-x="1239" 
d="M1130 0h-960v1458h960v-254h-675v-342h575v-254h-575v-354h675v-254z" />
    <glyph glyph-name="F" unicode="F" horiz-adv-x="1208" 
d="M1130 1204h-675v-358h575v-254h-575v-592h-285v1458h960v-254z" />
    <glyph glyph-name="G" unicode="G" horiz-adv-x="1305" 
d="M1200 602c0 -108.667 -10 -197.166 -30 -265.499s-55 -128.5 -105 -180.5c-36 -37.333 -74.667 -68.166 -116 -92.499s-87.333 -43 -138 -56s-102 -19.5 -154 -19.5c-154.667 0 -285.667 53 -393 159c-45.333 46.667 -78.166 98.167 -98.499 154.5s-32.833 115 -37.5 176
s-7 144.833 -7 251.5s2.33301 190.5 7 251.5s17.167 119.667 37.5 176s53.166 107.833 98.499 154.5c54 52.667 113 92.334 177 119.001s136 40 216 40c98.667 0 181.334 -14.333 248.001 -43s133 -76.334 199 -143.001l-193 -192
c-44.667 44.667 -84.834 76.667 -120.501 96s-80.167 29 -133.5 29c-76 0 -136.667 -26 -182 -78c-19.333 -22.667 -33.666 -47.167 -42.999 -73.5s-16 -66.333 -20 -120s-6 -125.834 -6 -216.501s2 -162.834 6 -216.501s10.667 -94 20 -121s23.666 -51.833 42.999 -74.5
c43.333 -50 104 -75 182 -75c80.667 0 145.667 27.333 195 82c42 45.333 63 111.333 63 198v51h-258v238h543v-209z" />
    <glyph glyph-name="H" unicode="H" horiz-adv-x="1403" 
d="M1233 0h-285v610h-493v-610h-285v1458h285v-596h493v596h285v-1458z" />
    <glyph glyph-name="I" unicode="I" horiz-adv-x="625" 
d="M455 0h-285v1458h285v-1458z" />
    <glyph glyph-name="J" unicode="J" horiz-adv-x="1047" 
d="M895 479c0 -78 -13.499 -147.666 -40.499 -208.999s-64.5 -112.833 -112.5 -154.5s-103 -73.334 -165 -95.001s-127.333 -32.5 -196 -32.5c-80 0 -149 11.5 -207 34.5s-114 61.167 -168 114.5l189 187c27.333 -27.333 54.666 -47.833 81.999 -61.5s62 -20.5 104 -20.5
c71.333 0 127.333 21.167 168 63.5s61 104.5 61 186.5v966h285v-979z" />
    <glyph glyph-name="K" unicode="K" horiz-adv-x="1362" 
d="M1350 0h-332l-375 664l-188 -226v-438h-285v1458h285v-635l514 635h346l-484 -579z" />
    <glyph glyph-name="L" unicode="L" horiz-adv-x="1178" 
d="M1116 0h-946v1458h285v-1204h661v-254z" />
    <glyph glyph-name="M" unicode="M" horiz-adv-x="1661" 
d="M1491 0h-285v850l-278 -553h-193l-280 553v-850h-285v1458h281l380 -788l379 788h281v-1458z" />
    <glyph glyph-name="N" unicode="N" horiz-adv-x="1456" 
d="M1286 0h-254l-577 895v-895h-285v1458h254l577 -893v893h285v-1458z" />
    <glyph glyph-name="O" unicode="O" horiz-adv-x="1319" 
d="M1198 729c0 -80.667 -0.833008 -144.336 -2.5 -191.003s-7.16699 -94.5 -16.5 -143.5s-23.833 -93.667 -43.5 -134s-47.167 -78.166 -82.5 -113.499c-107.333 -106 -238.666 -159 -393.999 -159c-80.667 0 -153.167 13.333 -217.5 40s-123.5 66.334 -177.5 119.001
c-45.333 46.667 -78.166 98.167 -98.499 154.5s-32.833 115 -37.5 176s-7 144.833 -7 251.5s2.33301 190.5 7 251.5s17.167 119.667 37.5 176s53.166 107.833 98.499 154.5c54 52.667 113.167 92.334 177.5 119.001s136.833 40 217.5 40c155.333 0 286.666 -53 393.999 -159
c44.667 -46 77.667 -97.333 99 -154s34.333 -115.5 39 -176.5s7 -144.833 7 -251.5zM913 728.998c0 90.667 -2.16797 162.669 -6.50098 216.002s-11.333 93.333 -21 120s-24.167 51.334 -43.5 74.001c-19.333 23.333 -45.166 42.166 -77.499 56.499s-67.5 21.5 -105.5 21.5
c-36 0 -70.333 -7 -103 -21s-59.667 -33 -81 -57c-19.333 -22.667 -33.666 -47.167 -42.999 -73.5s-16 -66.333 -20 -120s-6 -125.834 -6 -216.501s2 -162.667 6 -216s10.667 -93.333 20 -120s23.666 -51.334 42.999 -74.001c44.667 -51.333 106 -77 184 -77
c77.333 0 138.333 25.667 183 77c19.333 22.667 33.833 47.5 43.5 74.5s16.667 66.833 21 119.5s6.5 124.667 6.5 216z" />
    <glyph glyph-name="P" unicode="P" horiz-adv-x="1286" 
d="M1217 1004c0 -62 -10.8311 -120.499 -32.498 -175.499s-53.334 -103.333 -95.001 -145s-92.834 -74.5 -153.501 -98.5s-127.667 -36 -201 -36h-280v-549h-285v1458h565c73.333 0 140 -11.667 200 -35s111.167 -56 153.5 -98s74.333 -90.333 96 -145
s32.5 -113.334 32.5 -176.001zM932.002 1004c0 38.667 -8.83301 73.332 -26.5 103.999s-42.5 54.334 -74.5 71.001s-68.667 25 -110 25h-266v-399h266c41.333 0 78 8.16699 110 24.5s56.833 39.5 74.5 69.5s26.5 65 26.5 105z" />
    <glyph glyph-name="Q" unicode="Q" horiz-adv-x="1317" 
d="M1233 88l-149.998 -149.002l-129 129c-80.667 -53.333 -179 -80 -295 -80c-80.667 0 -153.167 13.333 -217.5 40s-123.5 66.334 -177.5 119.001c-45.333 46.667 -78.166 98.167 -98.499 154.5s-32.833 115 -37.5 176s-7 144.833 -7 251.5s2.33301 190.5 7 251.5
s17.167 119.667 37.5 176s53.166 107.833 98.499 154.5c54 52.667 113.167 92.334 177.5 119.001s136.833 40 217.5 40c155.333 0 286.666 -53 393.999 -159c44.667 -46 77.667 -97.333 99 -154s34.333 -115.5 39 -176.5s7 -144.833 7 -251.5c0 -92.667 -1.5 -166 -4.5 -220
s-10.833 -106.167 -23.5 -156.5s-33.334 -96.833 -62.001 -139.5zM913.002 728.998c0 90.667 -2.16797 162.669 -6.50098 216.002s-11.333 93.333 -21 120s-24.167 51.334 -43.5 74.001c-19.333 23.333 -45.166 42.166 -77.499 56.499s-67.5 21.5 -105.5 21.5
c-36 0 -70.333 -7 -103 -21s-59.667 -33 -81 -57c-19.333 -22.667 -33.666 -47.167 -42.999 -73.5s-16 -66.333 -20 -120s-6 -125.834 -6 -216.501s2 -162.667 6 -216s10.667 -93.333 20 -120s23.666 -51.334 42.999 -74.001c44.667 -51.333 106 -77 184 -77
c37.333 0 69 8.66699 95 26l-127 125l151 150l109 -109c17.333 50.667 26 149 26 295z" />
    <glyph glyph-name="R" unicode="R" horiz-adv-x="1339" 
d="M1274 0h-330l-285 582h-204v-582h-285v1458h571c96.667 0 180.667 -19.833 252 -59.5s126 -93.5 164 -161.5s57 -143 57 -225c0 -96.667 -24.667 -177.5 -74 -242.5s-113.333 -111.833 -192 -140.5zM930 1012c0 37.333 -8.49902 70.332 -25.499 98.999
s-41.333 51.334 -73 68.001s-67.834 25 -108.501 25h-268v-385h268c62 0 112 17.667 150 53s57 82 57 140z" />
    <glyph glyph-name="S" unicode="S" horiz-adv-x="1210" 
d="M1112 430c0 -91.333 -23.499 -170.498 -70.499 -237.498s-112 -117.833 -195 -152.5s-174.833 -52 -275.5 -52c-57.333 0 -110.666 3.5 -159.999 10.5s-94.5 17.5 -135.5 31.5s-81.667 33.5 -122 58.5s-78.5 55.5 -114.5 91.5l184 185
c81.333 -82 198.666 -123 351.999 -123c84 0 148.167 15.5 192.5 46.5s66.5 75.5 66.5 133.5c0 53.333 -15.333 94.333 -46 123c-27.333 25.333 -70.333 42.333 -129 51l-176 25c-124 18 -218 58 -282 120c-70 70 -105 165.667 -105 287c0 132 45.833 238.667 137.5 320
s215.167 122 370.5 122c102.667 0 191.667 -13.5 267 -40.5s143.333 -70.167 204 -129.5l-180 -178c-41.333 39.333 -86.5 66 -135.5 80s-103.5 21 -163.5 21c-72.667 0 -128.334 -17.333 -167.001 -52s-58 -79 -58 -133c0 -42.667 14.333 -77.334 43 -104.001
c31.333 -30 76.333 -49 135 -57l172 -25c124 -16.667 216.667 -54.334 278 -113.001c75.333 -70.667 113 -173.667 113 -309z" />
    <glyph glyph-name="T" unicode="T" horiz-adv-x="1169" 
d="M1108 1204h-381v-1204h-285v1204h-381v254h1047v-254z" />
    <glyph glyph-name="U" unicode="U" horiz-adv-x="1368" 
d="M1221 500c0 -100.667 -23.666 -190 -70.999 -268s-111.833 -138.167 -193.5 -180.5s-172.5 -63.5 -272.5 -63.5s-190.833 21.167 -272.5 63.5s-146.167 102.5 -193.5 180.5s-71 167.333 -71 268v958h285v-948c0 -82.667 22.667 -148 68 -196s106.666 -72 183.999 -72
c78 0 139.833 23.833 185.5 71.5s68.5 113.167 68.5 196.5v948h283v-958z" />
    <glyph glyph-name="V" unicode="V" horiz-adv-x="1190" 
d="M1184 1458l-484 -1458h-213l-481 1458h295l293 -950l293 950h297z" />
    <glyph glyph-name="W" unicode="W" horiz-adv-x="1817" 
d="M1804 1458l-391 -1458h-237l-269 885l-268 -885h-238l-389 1458h297l226 -919l266 919h213l266 -919l227 919h297z" />
    <glyph glyph-name="X" unicode="X" horiz-adv-x="1235" 
d="M1225 0h-326l-283 508l-280 -508h-326l453 748l-424 710h323l254 -471l256 471h322l-424 -710z" />
    <glyph glyph-name="Y" unicode="Y" horiz-adv-x="1171" 
d="M1165 1458l-438 -860v-598h-283v598l-438 860h309l273 -588l268 588h309z" />
    <glyph glyph-name="Z" unicode="Z" horiz-adv-x="1122" 
d="M1040 0h-958v229l623 975h-596v254h931v-225l-624 -979h624v-254z" />
    <glyph glyph-name="bracketleft" unicode="[" horiz-adv-x="774" 
d="M690 -152h-526v1762h526v-240h-260v-1282h260v-240z" />
    <glyph glyph-name="backslash" unicode="\" horiz-adv-x="825" 
d="M825 -152h-250l-575 1735h250z" />
    <glyph glyph-name="bracketright" unicode="]" horiz-adv-x="774" 
d="M612 -152h-526v238h260v1286h-260v238h526v-1762z" />
    <glyph glyph-name="asciicircum" unicode="^" horiz-adv-x="1233" 
d="M1104 797h-279l-209 385l-208 -385h-279l365 676h245z" />
    <glyph glyph-name="underscore" unicode="_" horiz-adv-x="1233" 
d="M1233 -365h-1233v179h1233v-179z" />
    <glyph glyph-name="grave" unicode="`" horiz-adv-x="1024" 
d="M625 1237h-179l-233 348h281z" />
    <glyph glyph-name="a" unicode="a" horiz-adv-x="1094" 
d="M956 0l-260.004 0.00195312v92c-34.667 -36 -72.167 -62 -112.5 -78s-90.166 -24 -149.499 -24s-111.666 7.83301 -156.999 23.5s-83.666 39.167 -114.999 70.5c-58.667 60 -88 140 -88 240c0 57.333 13.5 109.5 40.5 156.5s67.667 84.167 122 111.5s121.5 41 201.5 41
h252v53c0 59.333 -15.5 102.166 -46.5 128.499s-81.5 39.5 -151.5 39.5c-50.667 0 -90.167 -6.33301 -118.5 -19s-57.166 -35.667 -86.499 -69l-170 166c49.333 55.333 103 93.666 161 114.999s132.667 32 224 32c149.333 0 262.333 -31.667 339 -95s115 -157.333 115 -282
v-702zM689.996 393.002v58h-211c-47.333 0 -84 -10.667 -110 -32s-39 -51 -39 -89c0 -38.667 12.833 -68.834 38.5 -90.501s63.834 -32.5 114.501 -32.5c39.333 0 71.666 3.33301 96.999 10s49 20.334 71 41.001c26 24 39 69 39 135z" />
    <glyph glyph-name="b" unicode="b" horiz-adv-x="1147" 
d="M1042 535c0 -110.667 -6.33301 -201.833 -19 -273.5s-42.334 -130.834 -89.001 -177.501c-30 -29.333 -67.833 -52.666 -113.5 -69.999s-94.5 -26 -146.5 -26c-56.667 0 -106 8.66699 -148 26s-81.333 46 -118 86v-100h-258v1458h266v-485
c62.667 70.667 148.667 106 258 106c52 0 100.833 -8.5 146.5 -25.5s83.5 -40.5 113.5 -70.5c46.667 -46.667 76.334 -105.5 89.001 -176.5s19 -161.5 19 -271.5zM776 535.001c0 101.333 -11.666 177.5 -34.999 228.5s-71.666 76.5 -144.999 76.5
c-51.333 0 -90 -12.667 -116 -38s-43.167 -59.333 -51.5 -102s-12.5 -97.667 -12.5 -165c0 -68 4.16699 -123.5 12.5 -166.5s25.666 -77.333 51.999 -103s64.833 -38.5 115.5 -38.5c73.333 0 121.666 25.833 144.999 77.5s35 128.5 35 230.5z" />
    <glyph glyph-name="c" unicode="c" horiz-adv-x="983" 
d="M926 133c-94 -96.667 -211.66 -144.998 -352.993 -144.998c-58.667 0 -115.334 8.66699 -170.001 26s-105.5 47.166 -152.5 89.499s-84.5 99.5 -112.5 171.5s-42 158.667 -42 260c0 102 14 188.667 42 260s65.5 128 112.5 170s98.167 71.5 153.5 88.5
s111.666 25.5 168.999 25.5c75.333 0 141.166 -11.5 197.499 -34.5s108.166 -59.167 155.499 -108.5l-181 -180c-26.667 30 -53.334 51.5 -80.001 64.5s-57.334 19.5 -92.001 19.5c-62 0 -112.333 -23.333 -151 -70c-40 -50 -60 -128.333 -60 -235
c0 -108.667 20 -188 60 -238c38.667 -46.667 89 -70 151 -70c34.667 0 65.167 6.66699 91.5 20s53.166 34.666 80.499 63.999z" />
    <glyph glyph-name="d" unicode="d" horiz-adv-x="1149" 
d="M999 0l-260.001 -0.00292969v100c-35.333 -40 -74.166 -68.667 -116.499 -86s-91.5 -26 -147.5 -26c-35.333 0 -69 3.83301 -101 11.5s-62 18.834 -90 33.501s-51.667 31.667 -71 51c-32 30.667 -56.167 70.5 -72.5 119.5s-26.5 98.333 -30.5 148s-6 110.834 -6 183.501
c0 72 2 132.667 6 182s14.333 98.333 31 147s40.667 88.334 72 119.001c30 30 67.833 53.5 113.5 70.5s94.5 25.5 146.5 25.5c56 0 104.833 -8 146.5 -24s79.5 -43.333 113.5 -82v485h266v-1458zM732.999 534.997c0 68 -4.33008 123.166 -12.9971 165.499
s-26.334 76.166 -53.001 101.499s-65.334 38 -116.001 38c-51.333 0 -90 -12.667 -116 -38s-43.167 -59.333 -51.5 -102s-12.5 -97.667 -12.5 -165c0 -68 4.16699 -123.5 12.5 -166.5s25.666 -77.333 51.999 -103s64.833 -38.5 115.5 -38.5c50 0 88.5 12.833 115.5 38.5
s44.833 59.834 53.5 102.501s13 98.334 13 167.001z" />
    <glyph glyph-name="e" unicode="e" horiz-adv-x="1122" 
d="M1026 451l-668 -0.000976562c0 -70 20.833 -127.167 62.5 -171.5s98.834 -66.5 171.501 -66.5c56.667 0 102 7.66699 136 23s69.333 41 106 77l161 -157c-58 -58 -117.333 -100.5 -178 -127.5s-136.334 -40.5 -227.001 -40.5c-144 0 -262.333 41.5 -355 124.5
s-139 223.833 -139 422.5c0 112.667 19.333 210.167 58 292.5s93.167 144.833 163.5 187.5s151.5 64 243.5 64c96 0 179.167 -21.667 249.5 -65s123.833 -104.166 160.5 -182.499s55 -165.833 55 -262.5v-118zM764 632.999c-2 42.667 -10.334 81 -25.001 115
c-14.667 32.667 -37.167 59.167 -67.5 79.5s-67.166 30.5 -110.499 30.5c-42 0 -78.333 -10.167 -109 -30.5s-53.667 -46.833 -69 -79.5c-14.667 -36.667 -23 -75 -25 -115h406z" />
    <glyph glyph-name="f" unicode="f" horiz-adv-x="700" 
d="M645 834h-196v-834h-267v834h-110v202h110v133c0 54 11.333 104.167 34 150.5s57.5 83.833 104.5 112.5s104.833 43 173.5 43h151v-226h-104c-61.333 0 -92 -32 -92 -96v-117h196v-202z" />
    <glyph glyph-name="g" unicode="g" horiz-adv-x="1137" 
d="M987 39c0 -64 -10.666 -122.666 -31.999 -175.999s-52.5 -99.833 -93.5 -139.5s-91.167 -70.667 -150.5 -93s-123.666 -33.5 -192.999 -33.5c-53.333 0 -103 4.33301 -149 13s-88.167 23 -126.5 43s-75.5 47.667 -111.5 83l166 168c30 -28.667 61.333 -49.5 94 -62.5
s71 -19.5 115 -19.5c74.667 0 129.167 21.333 163.5 64s51.5 95 51.5 157v109c-34.667 -38.667 -72.167 -66.167 -112.5 -82.5s-87.5 -24.5 -141.5 -24.5c-106.667 0 -191.334 31.333 -254.001 94c-24 25.333 -43.167 52.166 -57.5 80.499s-25.5 61.333 -33.5 99
s-13 76.167 -15 115.5s-3 82.333 -3 129c0 110 6.83301 196.5 20.5 259.5s43.167 117.167 88.5 162.5c29.333 29.333 66.666 52.333 111.999 69s93.333 25 144 25c58 0 106.667 -8.66699 146 -26s77.333 -46 114 -86v100h258v-1028zM721.001 563.001
c0 86 -11.499 153.667 -34.499 203s-70.167 74 -141.5 74c-70.667 0 -117.334 -24.333 -140.001 -73s-34 -116.667 -34 -204c0 -55.333 3.83301 -103 11.5 -143s24.5 -72.5 50.5 -97.5s63.333 -37.5 112 -37.5c71.333 0 118.5 24.833 141.5 74.5s34.5 117.5 34.5 203.5z" />
    <glyph glyph-name="h" unicode="h" horiz-adv-x="1165" 
d="M1028 0l-266.001 0.00195312v651c0 65.333 -17 113.166 -51 143.499s-75 45.5 -123 45.5s-88.667 -15.333 -122 -46s-50 -78.334 -50 -143.001v-651h-266v1458h266v-489c35.333 36 74.833 63.333 118.5 82s89.5 28 137.5 28c58 0 109.333 -9.5 154 -28.5
s81.834 -45.833 111.501 -80.5s52.167 -76 67.5 -124s23 -100 23 -156v-690z" />
    <glyph glyph-name="i" unicode="i" horiz-adv-x="563" 
d="M449 1368c0 -46.667 -15.999 -86.334 -47.999 -119.001s-71.333 -49 -118 -49c-46 0 -85.5 16.5 -118.5 49.5s-49.5 72.5 -49.5 118.5s16.5 85.167 49.5 117.5s72.5 48.5 118.5 48.5c24 0 45.833 -4.16699 65.5 -12.5s37.167 -20.166 52.5 -35.499
s27.166 -32.833 35.499 -52.5s12.5 -41.5 12.5 -65.5zM416.001 0h-266v1067h266v-1067z" />
    <glyph glyph-name="j" unicode="j" horiz-adv-x="563" 
d="M449 1368c0 -46.667 -15.999 -86.334 -47.999 -119.001s-71.333 -49 -118 -49c-46 0 -85.5 16.5 -118.5 49.5s-49.5 72.5 -49.5 118.5s16.5 85.167 49.5 117.5s72.5 48.5 118.5 48.5c24 0 45.833 -4.16699 65.5 -12.5s37.167 -20.166 52.5 -35.499
s27.166 -32.833 35.499 -52.5s12.5 -41.5 12.5 -65.5zM416.001 -94c0 -54 -11.167 -104 -33.5 -150s-57 -83.333 -104 -112s-105.167 -43 -174.5 -43h-151v225h102c63.333 0 95 32 95 96v1145h266v-1161z" />
    <glyph glyph-name="k" unicode="k" horiz-adv-x="1145" 
d="M1120 0h-329l-263 444l-112 -127v-317h-266v1458h266v-827l354 436h322l-381 -430z" />
    <glyph glyph-name="l" unicode="l" horiz-adv-x="666" 
d="M602 0h-150.999c-102.667 -0 -180.334 29.833 -233.001 89.5s-79 131.5 -79 215.5v1153h267v-1136c0 -32 7.33301 -56.167 22 -72.5s38.667 -24.5 72 -24.5h102v-225z" />
    <glyph glyph-name="m" unicode="m" horiz-adv-x="1794" 
d="M1657 0h-265.999v645c0 68 -17.333 117.5 -52 148.5s-76.334 46.5 -125.001 46.5c-47.333 0 -88.833 -15.5 -124.5 -46.5s-53.5 -78.5 -53.5 -142.5v-651h-266v645c0 67.333 -17.167 116.666 -51.5 147.999s-75.833 47 -124.5 47s-90.5 -15.667 -125.5 -47
s-52.5 -80.666 -52.5 -147.999v-645h-266v1067h260v-98c33.333 34.667 74 61.667 122 81s96 29 144 29c122.667 0 216.667 -45 282 -135c46.667 48 95 82.5 145 103.5s108.333 31.5 175 31.5c52.667 0 102.5 -8.33301 149.5 -25s84.5 -39.667 112.5 -69
c78 -78 117 -179 117 -303v-682z" />
    <glyph glyph-name="n" unicode="n" horiz-adv-x="1174" 
d="M1036 0h-266.001v645c0 67.333 -17.167 116.666 -51.5 147.999s-75.833 47 -124.5 47s-90.5 -15.667 -125.5 -47s-52.5 -80.666 -52.5 -147.999v-645h-266v1067h260v-98c34 35.333 74.167 62.5 120.5 81.5s94.833 28.5 145.5 28.5c104 0 188 -31.333 252 -94
c40.667 -40.667 68.834 -85 84.501 -133s23.5 -104.667 23.5 -170v-682z" />
    <glyph glyph-name="o" unicode="o" 
d="M1008 535c0 -66 -3.5 -124 -10.5 -174s-19.5 -94.833 -37.5 -134.5s-42.333 -75.5 -73 -107.5c-82.667 -87.333 -193.334 -131 -332.001 -131c-137.333 0 -247.333 43.667 -330 131c-23.333 24 -42.666 49.667 -57.999 77s-27.833 58 -37.5 92
s-16.334 72.833 -20.001 116.5s-5.5 87.167 -5.5 130.5c0 44 1.83301 87.5 5.5 130.5s10.167 81 19.5 114s21.833 63.333 37.5 91s35.167 53.5 58.5 77.5c82.667 87.333 192.667 131 330 131c138.667 0 249.334 -43.667 332.001 -131c46 -48 77.667 -103.333 95 -166
s26 -145 26 -247zM741 535c0 67.333 -3.83301 120.835 -11.5 160.502s-24.167 72.167 -49.5 97.5c-32.667 31.333 -74.334 47 -125.001 47c-49.333 0 -90.333 -15.667 -123 -47c-25.333 -26.667 -41.833 -60.5 -49.5 -101.5s-11.5 -93.167 -11.5 -156.5
c0 -64 3.83301 -116.833 11.5 -158.5s24.167 -75.834 49.5 -102.501c32.667 -31.333 73.667 -47 123 -47c50.667 0 92.334 15.667 125.001 47c25.333 25.333 41.833 58.166 49.5 98.499s11.5 94.5 11.5 162.5z" />
    <glyph glyph-name="p" unicode="p" horiz-adv-x="1147" 
d="M1042 535c0 -110.667 -6.33203 -201.833 -18.999 -273.5s-42.334 -130.834 -89.001 -177.501c-30 -29.333 -67.833 -52.666 -113.5 -69.999s-94.5 -26 -146.5 -26c-56.667 0 -105.334 8.33301 -146.001 25s-78 43.667 -112 81v-485h-266v1458h258v-100
c36.667 40 75.5 68.667 116.5 86s90.833 26 149.5 26c52 0 100.833 -8.5 146.5 -25.5s83.5 -40.5 113.5 -70.5c46.667 -46.667 76.334 -105.5 89.001 -176.5s19 -161.5 19 -271.5zM776.001 535.001c0 101.333 -11.666 177.5 -34.999 228.5s-71.666 76.5 -144.999 76.5
c-51.333 0 -90 -12.667 -116 -38s-43.167 -59.333 -51.5 -102s-12.5 -97.667 -12.5 -165c0 -68 4.16699 -123.5 12.5 -166.5s25.666 -77.333 51.999 -103s64.833 -38.5 115.5 -38.5c73.333 0 121.666 25.833 144.999 77.5s35 128.5 35 230.5z" />
    <glyph glyph-name="q" unicode="q" horiz-adv-x="1149" 
d="M999 -391l-266 -0.00195312v485c-32.667 -37.333 -70.167 -64.333 -112.5 -81s-91.5 -25 -147.5 -25c-52 0 -100.833 8.66699 -146.5 26s-83.5 40.666 -113.5 69.999c-32 30.667 -56.167 70.5 -72.5 119.5s-26.5 98.333 -30.5 148s-6 110.834 -6 183.501
c0 72 2 132.667 6 182s14.333 98.333 31 147s40.5 88.334 71.5 119.001s69.333 54.334 115 71.001s94.834 25 147.501 25c58 0 107.667 -8.66699 149 -26s79.666 -46 114.999 -86v100h260v-1458zM733 534.998c0 68 -4.33008 123.166 -12.9971 165.499
s-26.334 76.166 -53.001 101.499s-65.334 38 -116.001 38c-51.333 0 -90 -12.667 -116 -38s-43.167 -59.333 -51.5 -102s-12.5 -97.667 -12.5 -165c0 -68 4.16699 -123.5 12.5 -166.5s25.666 -77.333 51.999 -103s64.833 -38.5 115.5 -38.5c50 0 88.5 12.833 115.5 38.5
s44.833 59.834 53.5 102.501s13 98.334 13 167.001z" />
    <glyph glyph-name="r" unicode="r" horiz-adv-x="932" 
d="M930 979l-201.001 -203c-21.333 22.667 -42.5 39 -63.5 49s-46.833 15 -77.5 15c-46 0 -86.167 -17.167 -120.5 -51.5s-51.5 -82.833 -51.5 -145.5v-643h-266v1067h260v-102c26.667 32 64 59 112 81s100 33 156 33c54.667 0 101.334 -7.66699 140.001 -23s76 -41 112 -77
z" />
    <glyph glyph-name="s" unicode="s" horiz-adv-x="1026" 
d="M952 336c0 -113.333 -42.168 -199.666 -126.501 -258.999s-192.833 -89 -325.5 -89c-64.667 0 -122 3.66699 -172 11s-99 22.166 -147 44.499s-93.333 54.833 -136 97.5l174 174c66.667 -66.667 161.667 -100 285 -100c50.667 0 94.667 9.16699 132 27.5
s56 46.166 56 83.499c0 58 -37.333 90.667 -112 98l-168 16c-101.333 10.667 -178.666 39.667 -231.999 87s-80 118 -80 212c0 106 39.833 189.167 119.5 249.5s177.167 90.5 292.5 90.5c183.333 0 319.333 -41.667 408 -125l-164 -166c-53.333 48 -136 72 -248 72
c-50 0 -87.833 -9.66699 -113.5 -29s-38.5 -43.666 -38.5 -72.999c0 -55.333 37 -86 111 -92l168 -17c70 -7.33301 128.5 -24 175.5 -50s82.333 -61.5 106 -106.5s35.5 -97.167 35.5 -156.5z" />
    <glyph glyph-name="t" unicode="t" horiz-adv-x="721" 
d="M629 0h-146c-68 -0 -125.333 14.333 -172 43s-81.167 66 -103.5 112s-33.5 96 -33.5 150v529h-113v202h113v316h266v-316h189v-202h-189v-512c0 -64.667 30.667 -97 92 -97h97v-225z" />
    <glyph glyph-name="u" unicode="u" horiz-adv-x="1174" 
d="M1024 0l-260.001 -0.000976562v98c-70 -73.333 -158.667 -110 -266 -110c-105.333 0 -189.333 31.333 -252 94c-40 40 -68.167 84.833 -84.5 134.5s-24.5 105.834 -24.5 168.501v682h266v-645c0 -68 17.333 -117.5 52 -148.5s76.334 -46.5 125.001 -46.5
c49.333 0 91.333 15.5 126 46.5s52 80.5 52 148.5v645h266v-1067z" />
    <glyph glyph-name="v" unicode="v" horiz-adv-x="1010" 
d="M1001 1067l-391 -1067h-209l-393 1067h281l217 -659l215 659h280z" />
    <glyph glyph-name="w" unicode="w" horiz-adv-x="1554" 
d="M1546 1067l-325 -1067h-220l-223 670l-223 -670h-219l-328 1067h283l172 -659l217 659h194l220 -659l172 659h280z" />
    <glyph glyph-name="x" unicode="x" horiz-adv-x="1079" 
d="M1055 0h-320l-196 319l-195 -319h-319l368 545l-354 522h319l181 -305l182 305h319l-354 -522z" />
    <glyph glyph-name="y" unicode="y" horiz-adv-x="1012" 
d="M1004 1067l-456.999 -1239c-24 -62 -50.667 -107.667 -80 -137c-27.333 -28 -60.5 -48.667 -99.5 -62s-82.167 -20 -129.5 -20h-105v239h62c37.333 0 65.666 6.83301 84.999 20.5s35.333 39.167 48 76.5l45 131l-365 991h281l221 -659l213 659h281z" />
    <glyph glyph-name="z" unicode="z" horiz-adv-x="979" 
d="M889 0h-813v203l473 624h-447v240h787v-203l-479 -624h479v-240z" />
    <glyph glyph-name="braceleft" unicode="{" horiz-adv-x="936" 
d="M848 -152l-209.002 0.00488281c-102 0 -178.333 25.333 -229 76c-57.333 57.333 -86 133.333 -86 228v297c0 58 -11.667 98.667 -35 122c-26 26 -61.667 39 -107 39h-94v238h94c45.333 0 81 13 107 39c23.333 23.333 35 64.333 35 123v297
c0 94.667 28.667 170.334 86 227.001c50.667 50.667 127 76 229 76h209v-240h-109c-58.667 0 -97.334 -9.66699 -116.001 -29c-22 -22.667 -33 -66.334 -33 -131.001v-276c0 -64.667 -13.167 -110.834 -39.5 -138.501s-60.166 -49.834 -101.499 -66.501
c40.667 -14.667 74.334 -36.334 101.001 -65.001s40 -75.334 40 -140.001v-276c0 -64.667 11 -108.334 33 -131.001c18.667 -19.333 57.334 -29 116.001 -29h109v-240z" />
    <glyph glyph-name="bar" unicode="|" horiz-adv-x="717" 
d="M492 -152h-267v1762h267v-1762z" />
    <glyph glyph-name="braceright" unicode="}" horiz-adv-x="936" 
d="M848 610l-93.998 -0.000976562c-45.333 0 -81 -13 -107 -39c-23.333 -23.333 -35 -64 -35 -122v-297c0 -94.667 -28.667 -170.667 -86 -228c-50.667 -50.667 -127 -76 -229 -76h-209v240h109c58.667 0 97.334 9.66699 116.001 29c22 22.667 33 66.334 33 131.001v276
c0 64.667 13.167 111 39.5 139s60.166 50 101.499 66c-42.667 18 -76.834 40.5 -102.501 67.5s-38.5 72.833 -38.5 137.5v276c0 64.667 -11 108.334 -33 131.001c-18.667 19.333 -57.334 29 -116.001 29h-109v240h209c102 0 178.333 -25.333 229 -76
c57.333 -56.667 86 -132.334 86 -227.001v-297c0 -58.667 11.667 -99.667 35 -123c26 -26 61.667 -39 107 -39h94v-238z" />
    <glyph glyph-name="asciitilde" unicode="~" horiz-adv-x="1241" 
d="M1165 575c-64 -64 -121.333 -109.333 -172 -136s-106 -40 -166 -40c-39.333 0 -77.166 5.5 -113.499 16.5s-78.166 28.833 -125.499 53.5c-63.333 32.667 -119.333 49 -168 49c-32 0 -60.333 -5.33301 -85 -16s-55 -34 -91 -70l-168 168c42.667 42.667 81.667 77 117 103
s70.166 44.667 104.499 56s72.5 17 114.5 17c42.667 0 82.167 -5.5 118.5 -16.5s76.5 -28.5 120.5 -52.5c36 -18 66.167 -30.833 90.5 -38.5s49.5 -11.5 75.5 -11.5c30.667 0 59.167 5.5 85.5 16.5s57.166 34.167 92.499 69.5z" />
    <glyph glyph-name="nonbreakingspace" unicode="&#xa0;" horiz-adv-x="475" 
 />
    <glyph glyph-name="exclamdown" unicode="&#xa1;" horiz-adv-x="711" 
d="M537 913c0 -44 -15.833 -81.833 -47.5 -113.5s-69.834 -47.5 -114.501 -47.5c-44 0 -81.667 16 -113 48s-47 69.667 -47 113c0 44 15.667 81.667 47 113s69 47 113 47c44.667 0 82.834 -15.5 114.501 -46.5s47.5 -68.833 47.5 -113.5zM541 -391h-330l65 1001h197z" />
    <glyph glyph-name="cent" unicode="&#xa2;" horiz-adv-x="1022" 
d="M961 369c-79.333 -83.333 -172.332 -134.669 -278.999 -154.002v-215h-207v215c-54.667 11.333 -105 31 -151 59s-86 64.167 -120 108.5s-60.5 97.333 -79.5 159s-28.5 131.167 -28.5 208.5c0 150.667 35 271.834 105 363.501s161.333 148.5 274 170.5v174h207v-174
c106 -18.667 199 -70 279 -154l-177 -172c-42.667 44.667 -86.334 72.667 -131.001 84v-585c28 6.66699 51.167 16.334 69.5 29.001s38.833 31 61.5 55zM504.001 460.997v576.999c-30 -8 -56 -25.667 -78 -53c-42.667 -53.333 -64 -131.666 -64 -234.999
c0 -104 21.333 -182.667 64 -236c20 -27.333 46 -45 78 -53z" />
    <glyph glyph-name="sterling" unicode="&#xa3;" horiz-adv-x="1186" 
d="M1094 0h-887.001v608h-125v205h125v166c0 78 14 148 42 210s65.833 113.833 113.5 155.5s102 73 163 94s126.167 31.5 195.5 31.5c80 0 148.833 -11.333 206.5 -34s113.167 -61 166.5 -115l-187 -186c-25.333 26.667 -52.166 47 -80.499 61s-63.5 21 -105.5 21
c-71.333 0 -127.833 -21 -169.5 -63s-62.5 -104.333 -62.5 -187v-154h232v-205h-232v-354h605v-254z" />
    <glyph glyph-name="currency" unicode="&#xa4;" horiz-adv-x="1370" 
d="M1249 197l-174 -176.998l-151 150c-75.333 -44 -155.333 -66 -240 -66c-83.333 0 -162.666 22 -237.999 66l-151 -150l-176 177l151 149c-44.667 76 -67 156 -67 240s22.333 163.667 67 239l-151 150l176 176l151 -150c75.333 44 154.666 66 237.999 66
c44.667 0 87.167 -5.83301 127.5 -17.5s77.833 -27.834 112.5 -48.501l151 150l174 -176l-149 -150c43.333 -72.667 65 -152.334 65 -239.001c0 -86 -21.667 -166 -65 -240zM926 586.002c0 66.667 -23.498 123.166 -70.498 169.499s-104.167 69.5 -171.5 69.5
c-66.667 0 -123.334 -23.333 -170.001 -70s-70 -103 -70 -169c0 -65.333 23.667 -121.666 71 -168.999s103.666 -71 168.999 -71c66 0 122.833 23.5 170.5 70.5s71.5 103.5 71.5 169.5z" />
    <glyph glyph-name="yen" unicode="&#xa5;" horiz-adv-x="1169" 
d="M1163 1458l-278 -553h151v-205h-256l-53 -102v-104h309v-205h-309v-289h-283v289h-311v205h311v104l-53 102h-258v205h154l-281 553h309l271 -590l270 590h307z" />
    <glyph glyph-name="brokenbar" unicode="&#xa6;" horiz-adv-x="723" 
d="M492 893h-267v717h267v-717zM492 -152h-267v717h267v-717z" />
    <glyph glyph-name="section" unicode="&#xa7;" horiz-adv-x="1087" 
d="M969 561c0 -47.333 -9.66895 -91.3301 -29.002 -131.997s-43.166 -75.834 -71.499 -105.501s-56.5 -52.167 -84.5 -67.5c110.667 -55.333 166 -150.333 166 -285c0 -80 -19 -148.333 -57 -205s-87.667 -99 -149 -127s-127.666 -42 -198.999 -42
s-137.5 12.833 -198.5 38.5s-111 66.167 -150 121.5s-58.833 123.333 -59.5 204h256c2 -38.667 16.5 -69.834 43.5 -93.501s63.167 -35.5 108.5 -35.5c46 0 82.333 12 109 36s40 55.667 40 95c0 69.333 -47.667 120 -143 152l-127 43
c-102.667 34.667 -178.167 81.5 -226.5 140.5s-72.5 140.5 -72.5 244.5c0 68 19.5 129.833 58.5 185.5s81.5 95.5 127.5 119.5c-49.333 26.667 -87.5 60.667 -114.5 102s-40.5 96.666 -40.5 165.999c0 63.333 14.667 122 44 176s73.666 97.167 132.999 129.5
s131.333 48.5 216 48.5c86 0 158.333 -15.333 217 -46s102.334 -72.5 131.001 -125.5s43.667 -113.167 45 -180.5h-250c-2 42.667 -15.667 74.167 -41 94.5s-59.333 30.5 -102 30.5c-45.333 0 -80.5 -11.167 -105.5 -33.5s-37.5 -51.5 -37.5 -87.5
c0 -60 45.667 -105 137 -135l127 -41c48 -14.667 91 -33.167 129 -55.5s69.5 -49 94.5 -80s43.833 -66.667 56.5 -107s19 -87.833 19 -142.5zM712.998 551.003c0 58.667 -17 105 -51 139c-30.667 28.667 -69 43 -115 43c-49.333 0 -88.333 -14.333 -117 -43
c-32.667 -31.333 -49 -77.666 -49 -138.999c0 -58.667 16.333 -104.334 49 -137.001c28.667 -28.667 67.667 -43 117 -43c48 0 86.333 14.333 115 43c34 34 51 79.667 51 137z" />
    <glyph glyph-name="dieresis" unicode="&#xa8;" horiz-adv-x="1024" 
d="M881 1366c0 -38 -13.333 -70.333 -40 -97s-59.334 -40 -98.001 -40c-38 0 -70.333 13.667 -97 41s-40 59.333 -40 96s13.333 68.667 40 96s59 41 97 41c38.667 0 71.334 -13.333 98.001 -40s40 -59 40 -97zM418 1366c0 -38 -13.333 -70.333 -40 -97s-59 -40 -97 -40
s-70.5 13.5 -97.5 40.5s-40.5 59.167 -40.5 96.5s13.5 69.5 40.5 96.5s59.5 40.5 97.5 40.5s70.333 -13.333 97 -40s40 -59 40 -97z" />
    <glyph glyph-name="copyright" unicode="&#xa9;" horiz-adv-x="1729" 
d="M1606 729c0 -99.333 -19.333 -194.666 -58 -285.999s-91.834 -170.833 -159.501 -238.5s-147.167 -120.667 -238.5 -159s-186.666 -57.5 -285.999 -57.5c-98.667 0 -193.667 19.167 -285 57.5s-170.833 91.333 -238.5 159s-120.834 147.167 -159.501 238.5
s-58 186.666 -58 285.999s19.333 194.666 58 285.999s91.834 170.833 159.501 238.5s147.167 120.667 238.5 159s186.333 57.5 285 57.5c99.333 0 194.666 -19.167 285.999 -57.5s170.833 -91.333 238.5 -159s120.834 -147.167 159.501 -238.5s58 -186.666 58 -285.999z
M1427 729c0 108 -24.832 206 -74.499 294s-117.5 157 -203.5 207s-181 75 -285 75s-199.333 -25.167 -286 -75.5s-154.834 -119.333 -204.501 -207s-74.5 -185.5 -74.5 -293.5s24.833 -205.833 74.5 -293.5s117.834 -156.5 204.501 -206.5s182 -75 286 -75
s199.167 24.833 285.5 74.5s154.166 118.5 203.499 206.5s74 186 74 294zM1149 434c-41.333 -36 -83 -62.6709 -125 -80.0039s-90.333 -26 -145 -26c-68.667 0 -131 15.5 -187 46.5s-100 77 -132 138s-48 133.167 -48 216.5c0 84.667 16 157.334 48 218.001
s76.167 106.834 132.5 138.501s118.5 47.5 186.5 47.5c96.667 0 186.667 -36.333 270 -109l-115 -115c-26 22.667 -51 39.334 -75 50.001s-50.667 16 -80 16c-63.333 0 -111.333 -21.667 -144 -65s-49 -103.666 -49 -180.999c0 -76 16.333 -136 49 -180s80.667 -66 144 -66
c29.333 0 55.5 5 78.5 15s48.5 27 76.5 51z" />
    <glyph glyph-name="ordfeminine" unicode="&#xaa;" horiz-adv-x="930" 
d="M803 606l-211 0.000976562v74c-29.333 -29.333 -59 -50.333 -89 -63s-69.333 -19 -118 -19c-93.333 0 -165 26 -215 78c-48 48 -72 110.667 -72 188c0 72 24.833 131.333 74.5 178s121.834 70 216.501 70h199v41c0 46.667 -12.167 80.5 -36.5 101.5
s-64.833 31.5 -121.5 31.5c-26.667 0 -49.5 -2.33301 -68.5 -7s-35.5 -11.834 -49.5 -21.501s-28.667 -23.167 -44 -40.5l-137 133c41.333 45.333 84.666 76.333 129.999 93s105 25 179 25c120 0 210.5 -25.167 271.5 -75.5s91.5 -125.5 91.5 -225.5v-561zM588 920.001
v47.001h-166c-37.333 0 -65.833 -8.83301 -85.5 -26.5s-29.5 -41.167 -29.5 -70.5c0 -62.667 39 -94 117 -94c30 0 55.667 2.66699 77 8s40 15.666 56 30.999c20.667 18.667 31 53.667 31 105z" />
    <glyph glyph-name="guillemotleft" unicode="&#xab;" horiz-adv-x="1286" 
d="M1151 55l-512 508l512 508v-317l-197 -191l197 -190v-318zM580 55l-510 508l510 508v-317l-193 -191l193 -190v-318z" />
    <glyph glyph-name="logicalnot" unicode="&#xac;" 
d="M1018 193h-248v296h-676v248h924v-544z" />
    <glyph glyph-name="minus" unicode="&#xad;" 
d="M1010 461h-908v248h908v-248z" />
    <glyph glyph-name="registered" unicode="&#xae;" horiz-adv-x="1729" 
d="M1606 729c0 -99.333 -19.333 -194.666 -58 -285.999s-91.834 -170.833 -159.501 -238.5s-147.167 -120.667 -238.5 -159s-186.666 -57.5 -285.999 -57.5c-98.667 0 -193.667 19.167 -285 57.5s-170.833 91.333 -238.5 159s-120.834 147.167 -159.501 238.5
s-58 186.666 -58 285.999s19.333 194.666 58 285.999s91.834 170.833 159.501 238.5s147.167 120.667 238.5 159s186.333 57.5 285 57.5c99.333 0 194.666 -19.167 285.999 -57.5s170.833 -91.333 238.5 -159s120.834 -147.167 159.501 -238.5s58 -186.666 58 -285.999z
M1430 729c0 108 -24.833 206 -74.5 294s-117.834 157 -204.501 207s-182.334 75 -287.001 75s-200.334 -25.167 -287.001 -75.5s-154.667 -119.333 -204 -207s-74 -185.5 -74 -293.5s24.667 -205.833 74 -293.5s117.333 -156.5 204 -206.5s182.334 -75 287.001 -75
s200.334 24.833 287.001 74.5s154.834 118.5 204.501 206.5s74.5 186 74.5 294zM1198 336l-201 0.00195312l-143 305h-84v-305h-176v788h321c51.333 0 97 -11.333 137 -34s71 -52.834 93 -90.501s33 -78.5 33 -122.5c0 -51.333 -13.833 -94.833 -41.5 -130.5
s-62.5 -61.834 -104.5 -78.501zM1001 877.002c0 18 -4.50098 35 -13.501 51s-21.667 28.5 -38 37.5s-35.166 13.5 -56.499 13.5h-123v-205h123c32 0 58 10 78 30s30 44.333 30 73z" />
    <glyph glyph-name="macron" unicode="&#xaf;" horiz-adv-x="1024" 
d="M836 1290h-648v178h648v-178z" />
    <glyph glyph-name="degree" unicode="&#xb0;" horiz-adv-x="979" 
d="M866 1110c0 -67.333 -16.833 -130.166 -50.5 -188.499s-79.667 -104.333 -138 -138s-121.166 -50.5 -188.499 -50.5s-130 16.833 -188 50.5s-103.833 79.667 -137.5 138s-50.5 121.166 -50.5 188.499s16.833 130.5 50.5 189.5s79.5 105.333 137.5 139
s120.667 50.5 188 50.5s130.166 -16.833 188.499 -50.5s104.333 -80 138 -139s50.5 -122.167 50.5 -189.5zM651 1110c0 46 -15.834 84.833 -47.501 116.5s-70.5 47.5 -116.5 47.5c-45.333 0 -83.166 -15.833 -113.499 -47.5s-45.5 -70.5 -45.5 -116.5
s15.5 -84.833 46.5 -116.5s69.167 -47.5 114.5 -47.5c46 0 84.5 15.833 115.5 47.5s46.5 70.5 46.5 116.5z" />
    <glyph glyph-name="plusminus" unicode="&#xb1;" 
d="M1010 698h-328v-329h-250v329h-330v248h330v330h250v-330h328v-248zM1010 0h-908v250h908v-250z" />
    <glyph glyph-name="twosuperior" unicode="&#xb2;" horiz-adv-x="733" 
d="M645 584l-557.001 -0.000976562v174l320 350c30 32.667 45 64.667 45 96c0 26.667 -7.66699 48 -23 64s-36.333 24 -63 24c-57.333 0 -86 -30 -86 -90h-193c0 82.667 26.333 147.334 79 194.001s119.334 70 200.001 70c52 0 99.333 -10.5 142 -31.5s76 -51.167 100 -90.5
s36 -86 36 -140c0 -41.333 -8.33301 -77 -25 -107s-43.667 -65.333 -81 -106l-215 -233h321v-174z" />
    <glyph glyph-name="threesuperior" unicode="&#xb3;" horiz-adv-x="754" 
d="M666 844c0 -86 -27.665 -152.33 -82.998 -198.997s-124 -70 -206 -70c-80 0 -148.167 22.667 -204.5 68s-84.5 113 -84.5 203h193c0 -30.667 9.16699 -54.667 27.5 -72s41.166 -26 68.499 -26c30 0 53.5 9.16699 70.5 27.5s25.5 43.166 25.5 74.499
c0 28.667 -8.83301 52.167 -26.5 70.5s-42.167 27.5 -73.5 27.5h-27v166h27c29.333 0 51.666 8.83301 66.999 26.5s23 38.167 23 61.5c0 18.667 -4 35 -12 49s-18.5 24.333 -31.5 31s-27.167 10 -42.5 10c-16 0 -30.5 -3.33301 -43.5 -10s-23.333 -16.334 -31 -29.001
s-11.5 -28.334 -11.5 -47.001h-193c0 79.333 26.5 142.5 79.5 189.5s119.5 70.5 199.5 70.5c52.667 0 100.167 -10.833 142.5 -32.5s75.5 -52.167 99.5 -91.5s36 -84 36 -134c0 -76.667 -30.667 -134 -92 -172c68.667 -43.333 103 -107.333 103 -192z" />
    <glyph glyph-name="acute" unicode="&#xb4;" horiz-adv-x="1024" 
d="M811 1585l-233 -348h-179l131 348h281z" />
    <glyph glyph-name="mu" unicode="&#xb5;" horiz-adv-x="1180" 
d="M1030 0h-260v98c-70 -73.333 -158.667 -110 -266 -110c-38 0 -69.333 9.33301 -94 28v-407h-267v1458h267v-645c0 -68 17.167 -117.5 51.5 -148.5s75.833 -46.5 124.5 -46.5c49.333 0 91.333 15.5 126 46.5s52 80.5 52 148.5v645h266v-1067z" />
    <glyph glyph-name="paragraph" unicode="&#xb6;" horiz-adv-x="1368" 
d="M1198 -391h-266v1595h-205v-1595h-266v1022c-68 0 -131.833 18.5 -191.5 55.5s-107.5 87 -143.5 150s-54 131.5 -54 205.5c0 132 42.833 234.333 128.5 307s200.5 109 344.5 109h653v-1849z" />
    <glyph glyph-name="cedilla" unicode="&#xb8;" horiz-adv-x="1024" 
d="M666 -123l-91 -299h-247l141 299h197z" />
    <glyph glyph-name="onesuperior" unicode="&#xb9;" horiz-adv-x="598" 
d="M457 584h-195v657l-184 -160v217l184 160h195v-874z" />
    <glyph glyph-name="ordmasculine" unicode="&#xba;" horiz-adv-x="946" 
d="M834 1032c0 -80.667 -7 -145.835 -21 -195.502s-40 -94.5 -78 -134.5c-66.667 -69.333 -154 -104 -262 -104s-195.333 34.667 -262 104c-36.667 38.667 -62.167 83.167 -76.5 133.5s-21.5 115.833 -21.5 196.5c0 81.333 7 147.333 21 198s39.667 95.334 77 134.001
c66.667 69.333 154 104 262 104s195.333 -34.667 262 -104c26 -27.333 46.167 -56.5 60.5 -87.5s24.333 -65.667 30 -104s8.5 -85.166 8.5 -140.499zM618 1032c0 52 -3.16699 95.002 -9.5 129.002s-18.833 60 -37.5 78c-24 24.667 -56.667 37 -98 37s-74 -12.333 -98 -37
c-18.667 -18.667 -31.167 -44.834 -37.5 -78.501s-9.5 -76.5 -9.5 -128.5c0 -51.333 3 -93.333 9 -126s18.667 -59 38 -79c24 -24 56.667 -36 98 -36s74 12 98 36c18.667 18.667 31.167 44.667 37.5 78s9.5 75.666 9.5 126.999z" />
    <glyph glyph-name="guillemotright" unicode="&#xbb;" horiz-adv-x="1286" 
d="M1219 563l-512 -508v318l192 190l-192 191v317zM647 563l-510 -508v318l195 190l-195 191v317z" />
    <glyph glyph-name="onequarter" unicode="&#xbc;" horiz-adv-x="1712" 
d="M1630 117h-67v-117h-185v117h-360v182l293 575h211l-295 -575h151v127h185v-127h67v-182zM1280 1458l-690 -1458h-209l690 1458h209zM457 584h-195v657l-184 -160v217l184 160h195v-874z" />
    <glyph glyph-name="onehalf" unicode="&#xbd;" horiz-adv-x="1765" 
d="M1677 0l-557.002 -0.00195312v174l320 350c16 16.667 27.833 32.334 35.5 47.001s11.5 31.334 11.5 50.001c0 27.333 -7.83301 48.833 -23.5 64.5s-37.167 23.5 -64.5 23.5c-56 0 -84 -30.333 -84 -91h-195c0 82.667 26.5 147.5 79.5 194.5s119.5 70.5 199.5 70.5
c52.667 0 100.334 -10.667 143.001 -32s75.834 -51.833 99.501 -91.5s35.5 -85.834 35.5 -138.501c0 -41.333 -8 -76.666 -24 -105.999s-43.333 -65 -82 -107l-215 -234h321v-174zM1270 1458l-690 -1458h-207l690 1458h207zM456.998 583.998h-195v657l-184 -160v217l184 160
h195v-874z" />
    <glyph glyph-name="threequarters" unicode="&#xbe;" horiz-adv-x="1772" 
d="M1690 117h-68v-117h-184v117h-361v182l293 575h211l-295 -575h152v127h184v-127h68v-182zM1346 1458l-691 -1458h-209l691 1458h209zM666 844c0 -86 -27.665 -152.33 -82.998 -198.997s-124 -70 -206 -70c-80 0 -148.167 22.667 -204.5 68s-84.5 113 -84.5 203h193
c0 -30.667 9.16699 -54.667 27.5 -72s41.166 -26 68.499 -26c30 0 53.5 9.16699 70.5 27.5s25.5 43.166 25.5 74.499c0 28.667 -8.83301 52.167 -26.5 70.5s-42.167 27.5 -73.5 27.5h-27v166h27c29.333 0 51.666 8.83301 66.999 26.5s23 38.167 23 61.5
c0 18.667 -4 35 -12 49s-18.5 24.333 -31.5 31s-27.167 10 -42.5 10c-16 0 -30.5 -3.33301 -43.5 -10s-23.333 -16.334 -31 -29.001s-11.5 -28.334 -11.5 -47.001h-193c0 79.333 26.5 142.5 79.5 189.5s119.5 70.5 199.5 70.5c52.667 0 100.167 -10.833 142.5 -32.5
s75.5 -52.167 99.5 -91.5s36 -84 36 -134c0 -76.667 -30.667 -134 -92 -172c68.667 -43.333 103 -107.333 103 -192z" />
    <glyph glyph-name="questiondown" unicode="&#xbf;" horiz-adv-x="1071" 
d="M698 913c0 -43.333 -15.333 -81 -46 -113s-68.334 -48 -113.001 -48c-43.333 0 -81.166 16.167 -113.499 48.5s-48.5 69.833 -48.5 112.5c0 43.333 16.167 80.833 48.5 112.5s70.166 47.5 113.499 47.5c44.667 0 82.334 -15.667 113.001 -47s46 -69 46 -113zM979 8
c0 -123.333 -41.332 -222.667 -123.999 -298s-185.334 -113 -308.001 -113c-78.667 0 -150.834 16.333 -216.501 49s-117.667 80.167 -156 142.5s-57.5 134.833 -57.5 217.5c0 82 33.333 167.333 100 256l152 203c24.667 33.333 37 68 37 104v41h266v-61
c0 -43.333 -6.16699 -80.833 -18.5 -112.5s-32.166 -65.167 -59.499 -100.5l-152 -195c-39.333 -52.667 -59 -98.334 -59 -137.001c0 -49.333 14.833 -89.666 44.5 -120.999s69.5 -47 119.5 -47c52 0 92.667 16.167 122 48.5s44 73.5 44 123.5h266z" />
    <glyph glyph-name="Agrave" unicode="&#xc0;" horiz-adv-x="1307" 
d="M1296 0h-297l-86 258h-518l-88 -258h-297l531 1458h223zM838 498l-179 530l-184 -530h363zM762 1599h-179l-233 348h281z" />
    <glyph glyph-name="Aacute" unicode="&#xc1;" horiz-adv-x="1307" 
d="M1296 0h-297l-86 258h-518l-88 -258h-297l531 1458h223zM838 498l-179 530l-184 -530h363zM948 1947l-233 -348h-179l131 348h281z" />
    <glyph glyph-name="Acircumflex" unicode="&#xc2;" horiz-adv-x="1307" 
d="M1296 0h-297l-86 258h-518l-88 -258h-297l531 1458h223zM838 498l-179 530l-184 -530h363zM1026 1599h-207l-170 186l-170 -186h-207l271 346h212z" />
    <glyph glyph-name="Atilde" unicode="&#xc3;" horiz-adv-x="1307" 
d="M1296 0h-297l-86 258h-518l-88 -258h-297l531 1458h223zM838 498l-179 530l-184 -530h363zM1018 1742c-44.667 -44.667 -84.6689 -75.833 -120.002 -93.5s-72.666 -26.5 -111.999 -26.5c-26.667 0 -51.5 3.5 -74.5 10.5s-50.5 19.167 -82.5 36.5
c-42.667 24 -81 36 -115 36c-21.333 0 -40.833 -3.83301 -58.5 -11.5s-38.5 -23.5 -62.5 -47.5l-115 117c44 44 83.333 75.167 118 93.5s72 27.5 112 27.5c31.333 0 58 -3.33301 80 -10s47.667 -19 77 -37c40.667 -24.667 78.334 -37 113.001 -37
c20 0 39.167 3.83301 57.5 11.5s39.5 23.5 63.5 47.5z" />
    <glyph glyph-name="Adieresis" unicode="&#xc4;" horiz-adv-x="1307" 
d="M1296 0h-297l-86 258h-518l-88 -258h-297l531 1458h223zM838 498l-179 530l-184 -530h363zM1018 1728c0 -38 -13.333 -70.333 -40 -97s-59.334 -40 -98.001 -40c-38 0 -70.333 13.667 -97 41s-40 59.333 -40 96s13.333 68.667 40 96s59 41 97 41
c38.667 0 71.334 -13.333 98.001 -40s40 -59 40 -97zM555 1728c0 -38 -13.333 -70.333 -40 -97s-59 -40 -97 -40s-70.5 13.5 -97.5 40.5s-40.5 59.167 -40.5 96.5s13.5 69.5 40.5 96.5s59.5 40.5 97.5 40.5s70.333 -13.333 97 -40s40 -59 40 -97z" />
    <glyph glyph-name="Aring" unicode="&#xc5;" horiz-adv-x="1307" 
d="M1296 0h-297l-86 258h-518l-88 -258h-297l531 1458h223zM838 498l-179 530l-184 -530h363zM917 1810c0 -73.333 -26 -136.333 -78 -189s-115.333 -79 -190 -79c-73.333 0 -136.333 26.333 -189 79s-79 115.667 -79 189c0 74 26.333 137.333 79 190s115.667 79 189 79
c74 0 137.167 -26.167 189.5 -78.5s78.5 -115.833 78.5 -190.5zM768 1810c0 34 -11.333 62.333 -34 85s-51 34 -85 34s-62.333 -11.333 -85 -34s-34 -51 -34 -85c0 -33.333 11.5 -61.833 34.5 -85.5s51.167 -35.5 84.5 -35.5s61.5 11.833 84.5 35.5s34.5 52.167 34.5 85.5z
" />
    <glyph glyph-name="AE" unicode="&#xc6;" horiz-adv-x="2005" 
d="M1896 0h-958v319h-461l-166 -319h-305l762 1458h1128v-254h-675v-344h577v-254h-577v-352h675v-254zM938 559v645l-338 -645h338z" />
    <glyph glyph-name="Ccedilla" unicode="&#xc7;" horiz-adv-x="1180" 
d="M1063 156c-56 -54.667 -115.503 -96.333 -178.503 -125s-138.833 -43 -227.5 -43c-154.667 0 -285.667 53 -393 159c-45.333 46.667 -78.166 98.167 -98.499 154.5s-32.833 115 -37.5 176s-7 144.833 -7 251.5s2.33301 190.5 7 251.5s17.167 119.667 37.5 176
s53.166 107.833 98.499 154.5c107.333 106 238.333 159 393 159c88.667 0 164.334 -14 227.001 -42s122.334 -69.667 179.001 -125l-189 -189c-34.667 36 -67.667 62.167 -99 78.5s-70.666 24.5 -117.999 24.5c-76 0 -136 -25.333 -180 -76
c-19.333 -22.667 -33.833 -47.5 -43.5 -74.5s-16.667 -67.333 -21 -121s-6.5 -125.834 -6.5 -216.501s2 -162.667 6 -216s11 -93.666 21 -120.999s24.667 -52.333 44 -75c43.333 -50 103.333 -75 180 -75c33.333 0 62.333 4 87 12s47 19.5 67 34.5s41 33.5 63 55.5z
M776.997 -122.999l-91 -299h-247l141 299h197z" />
    <glyph glyph-name="Egrave" unicode="&#xc8;" horiz-adv-x="1239" 
d="M1130 0h-960v1458h960v-254h-675v-342h575v-254h-575v-354h675v-254zM748 1599h-179l-233 348h281z" />
    <glyph glyph-name="Eacute" unicode="&#xc9;" horiz-adv-x="1239" 
d="M1130 0h-960v1458h960v-254h-675v-342h575v-254h-575v-354h675v-254zM932 1947l-233 -348h-179l131 348h281z" />
    <glyph glyph-name="Ecircumflex" unicode="&#xca;" horiz-adv-x="1239" 
d="M1130 0h-960v1458h960v-254h-675v-342h575v-254h-575v-354h675v-254zM1012 1599h-207l-170 186l-170 -186h-207l271 346h212z" />
    <glyph glyph-name="Edieresis" unicode="&#xcb;" horiz-adv-x="1239" 
d="M1130 0h-960v1458h960v-254h-675v-342h575v-254h-575v-354h675v-254zM1004 1728c0 -38 -13.333 -70.333 -40 -97s-59.334 -40 -98.001 -40c-38 0 -70.333 13.667 -97 41s-40 59.333 -40 96s13.333 68.667 40 96s59 41 97 41c38.667 0 71.334 -13.333 98.001 -40
s40 -59 40 -97zM541 1728c0 -38 -13.333 -70.333 -40 -97s-59 -40 -97 -40s-70.5 13.5 -97.5 40.5s-40.5 59.167 -40.5 96.5s13.5 69.5 40.5 96.5s59.5 40.5 97.5 40.5s70.333 -13.333 97 -40s40 -59 40 -97z" />
    <glyph glyph-name="Igrave" unicode="&#xcc;" horiz-adv-x="625" 
d="M455 0h-285v1458h285v-1458zM480 1599h-179l-233 348h281z" />
    <glyph glyph-name="Iacute" unicode="&#xcd;" horiz-adv-x="625" 
d="M455 0h-285v1458h285v-1458zM563 1947l-233 -348h-179l131 348h281z" />
    <glyph glyph-name="Icircumflex" unicode="&#xce;" horiz-adv-x="625" 
d="M455 0h-285v1458h285v-1458zM686 1599h-207l-170 186l-170 -186h-207l271 346h212z" />
    <glyph glyph-name="Idieresis" unicode="&#xcf;" horiz-adv-x="625" 
d="M455 0h-285v1458h285v-1458zM682 1728c0 -38 -13.333 -70.333 -40 -97s-59.334 -40 -98.001 -40c-38 0 -70.333 13.667 -97 41s-40 59.333 -40 96s13.333 68.667 40 96s59 41 97 41c38.667 0 71.334 -13.333 98.001 -40s40 -59 40 -97zM219 1728
c0 -38 -13.333 -70.333 -40 -97s-59 -40 -97 -40s-70.5 13.5 -97.5 40.5s-40.5 59.167 -40.5 96.5s13.5 69.5 40.5 96.5s59.5 40.5 97.5 40.5s70.333 -13.333 97 -40s40 -59 40 -97z" />
    <glyph glyph-name="Eth" unicode="&#xd0;" horiz-adv-x="1397" 
d="M1276 729v-62.9961c0 -94.667 -2.33301 -167 -7 -217s-16.167 -98.333 -34.5 -145s-47.5 -91.334 -87.5 -134.001c-30.667 -34.667 -67 -64.834 -109 -90.501s-88.333 -45.334 -139 -59.001s-104 -20.5 -160 -20.5h-522v629h-141v217h141v612h526
c169.333 0 304 -57.333 404 -172c56 -62.667 91.5 -126.834 106.5 -192.501s22.5 -160.5 22.5 -284.5v-80zM991 725.004c0 127.333 -3.16895 214.333 -9.50195 261s-20.166 84.667 -41.499 114c-50 70.667 -124.333 106 -223 106h-215v-360h237v-217h-237v-377h215
c102.667 0 178.334 36 227.001 108c20 28.667 32.833 63.5 38.5 104.5s8.5 127.833 8.5 260.5z" />
    <glyph glyph-name="Ntilde" unicode="&#xd1;" horiz-adv-x="1458" 
d="M1286 0h-254l-577 895v-895h-285v1458h254l577 -893v893h285v-1458zM1098 1742c-44.667 -44.667 -84.6689 -75.833 -120.002 -93.5s-72.666 -26.5 -111.999 -26.5c-26.667 0 -51.5 3.5 -74.5 10.5s-50.5 19.167 -82.5 36.5c-42.667 24 -81 36 -115 36
c-21.333 0 -40.833 -3.83301 -58.5 -11.5s-38.5 -23.5 -62.5 -47.5l-115 117c44 44 83.333 75.167 118 93.5s72 27.5 112 27.5c31.333 0 58 -3.33301 80 -10s47.667 -19 77 -37c40.667 -24.667 78.334 -37 113.001 -37c20 0 39.167 3.83301 57.5 11.5s39.5 23.5 63.5 47.5z
" />
    <glyph glyph-name="Ograve" unicode="&#xd2;" horiz-adv-x="1319" 
d="M1198 729c0 -80.667 -0.833008 -144.336 -2.5 -191.003s-7.16699 -94.5 -16.5 -143.5s-23.833 -93.667 -43.5 -134s-47.167 -78.166 -82.5 -113.499c-107.333 -106 -238.666 -159 -393.999 -159c-80.667 0 -153.167 13.333 -217.5 40s-123.5 66.334 -177.5 119.001
c-45.333 46.667 -78.166 98.167 -98.499 154.5s-32.833 115 -37.5 176s-7 144.833 -7 251.5s2.33301 190.5 7 251.5s17.167 119.667 37.5 176s53.166 107.833 98.499 154.5c54 52.667 113.167 92.334 177.5 119.001s136.833 40 217.5 40c155.333 0 286.666 -53 393.999 -159
c44.667 -46 77.667 -97.333 99 -154s34.333 -115.5 39 -176.5s7 -144.833 7 -251.5zM913 728.998c0 90.667 -2.16797 162.669 -6.50098 216.002s-11.333 93.333 -21 120s-24.167 51.334 -43.5 74.001c-19.333 23.333 -45.166 42.166 -77.499 56.499s-67.5 21.5 -105.5 21.5
c-36 0 -70.333 -7 -103 -21s-59.667 -33 -81 -57c-19.333 -22.667 -33.666 -47.167 -42.999 -73.5s-16 -66.333 -20 -120s-6 -125.834 -6 -216.501s2 -162.667 6 -216s10.667 -93.333 20 -120s23.666 -51.334 42.999 -74.001c44.667 -51.333 106 -77 184 -77
c77.333 0 138.333 25.667 183 77c19.333 22.667 33.833 47.5 43.5 74.5s16.667 66.833 21 119.5s6.5 124.667 6.5 216zM771.999 1599h-179l-233 348h281z" />
    <glyph glyph-name="Oacute" unicode="&#xd3;" horiz-adv-x="1319" 
d="M1198 729c0 -80.667 -0.833008 -144.336 -2.5 -191.003s-7.16699 -94.5 -16.5 -143.5s-23.833 -93.667 -43.5 -134s-47.167 -78.166 -82.5 -113.499c-107.333 -106 -238.666 -159 -393.999 -159c-80.667 0 -153.167 13.333 -217.5 40s-123.5 66.334 -177.5 119.001
c-45.333 46.667 -78.166 98.167 -98.499 154.5s-32.833 115 -37.5 176s-7 144.833 -7 251.5s2.33301 190.5 7 251.5s17.167 119.667 37.5 176s53.166 107.833 98.499 154.5c54 52.667 113.167 92.334 177.5 119.001s136.833 40 217.5 40c155.333 0 286.666 -53 393.999 -159
c44.667 -46 77.667 -97.333 99 -154s34.333 -115.5 39 -176.5s7 -144.833 7 -251.5zM913 728.998c0 90.667 -2.16797 162.669 -6.50098 216.002s-11.333 93.333 -21 120s-24.167 51.334 -43.5 74.001c-19.333 23.333 -45.166 42.166 -77.499 56.499s-67.5 21.5 -105.5 21.5
c-36 0 -70.333 -7 -103 -21s-59.667 -33 -81 -57c-19.333 -22.667 -33.666 -47.167 -42.999 -73.5s-16 -66.333 -20 -120s-6 -125.834 -6 -216.501s2 -162.667 6 -216s10.667 -93.333 20 -120s23.666 -51.334 42.999 -74.001c44.667 -51.333 106 -77 184 -77
c77.333 0 138.333 25.667 183 77c19.333 22.667 33.833 47.5 43.5 74.5s16.667 66.833 21 119.5s6.5 124.667 6.5 216zM957.999 1947l-233 -348h-179l131 348h281z" />
    <glyph glyph-name="Ocircumflex" unicode="&#xd4;" horiz-adv-x="1319" 
d="M1198 729c0 -80.667 -0.833008 -144.336 -2.5 -191.003s-7.16699 -94.5 -16.5 -143.5s-23.833 -93.667 -43.5 -134s-47.167 -78.166 -82.5 -113.499c-107.333 -106 -238.666 -159 -393.999 -159c-80.667 0 -153.167 13.333 -217.5 40s-123.5 66.334 -177.5 119.001
c-45.333 46.667 -78.166 98.167 -98.499 154.5s-32.833 115 -37.5 176s-7 144.833 -7 251.5s2.33301 190.5 7 251.5s17.167 119.667 37.5 176s53.166 107.833 98.499 154.5c54 52.667 113.167 92.334 177.5 119.001s136.833 40 217.5 40c155.333 0 286.666 -53 393.999 -159
c44.667 -46 77.667 -97.333 99 -154s34.333 -115.5 39 -176.5s7 -144.833 7 -251.5zM913 728.998c0 90.667 -2.16797 162.669 -6.50098 216.002s-11.333 93.333 -21 120s-24.167 51.334 -43.5 74.001c-19.333 23.333 -45.166 42.166 -77.499 56.499s-67.5 21.5 -105.5 21.5
c-36 0 -70.333 -7 -103 -21s-59.667 -33 -81 -57c-19.333 -22.667 -33.666 -47.167 -42.999 -73.5s-16 -66.333 -20 -120s-6 -125.834 -6 -216.501s2 -162.667 6 -216s10.667 -93.333 20 -120s23.666 -51.334 42.999 -74.001c44.667 -51.333 106 -77 184 -77
c77.333 0 138.333 25.667 183 77c19.333 22.667 33.833 47.5 43.5 74.5s16.667 66.833 21 119.5s6.5 124.667 6.5 216zM1036 1599h-207l-170 186l-170 -186h-207l271 346h212z" />
    <glyph glyph-name="Otilde" unicode="&#xd5;" horiz-adv-x="1319" 
d="M1198 729c0 -80.667 -0.833008 -144.336 -2.5 -191.003s-7.16699 -94.5 -16.5 -143.5s-23.833 -93.667 -43.5 -134s-47.167 -78.166 -82.5 -113.499c-107.333 -106 -238.666 -159 -393.999 -159c-80.667 0 -153.167 13.333 -217.5 40s-123.5 66.334 -177.5 119.001
c-45.333 46.667 -78.166 98.167 -98.499 154.5s-32.833 115 -37.5 176s-7 144.833 -7 251.5s2.33301 190.5 7 251.5s17.167 119.667 37.5 176s53.166 107.833 98.499 154.5c54 52.667 113.167 92.334 177.5 119.001s136.833 40 217.5 40c155.333 0 286.666 -53 393.999 -159
c44.667 -46 77.667 -97.333 99 -154s34.333 -115.5 39 -176.5s7 -144.833 7 -251.5zM913 728.998c0 90.667 -2.16797 162.669 -6.50098 216.002s-11.333 93.333 -21 120s-24.167 51.334 -43.5 74.001c-19.333 23.333 -45.166 42.166 -77.499 56.499s-67.5 21.5 -105.5 21.5
c-36 0 -70.333 -7 -103 -21s-59.667 -33 -81 -57c-19.333 -22.667 -33.666 -47.167 -42.999 -73.5s-16 -66.333 -20 -120s-6 -125.834 -6 -216.501s2 -162.667 6 -216s10.667 -93.333 20 -120s23.666 -51.334 42.999 -74.001c44.667 -51.333 106 -77 184 -77
c77.333 0 138.333 25.667 183 77c19.333 22.667 33.833 47.5 43.5 74.5s16.667 66.833 21 119.5s6.5 124.667 6.5 216zM1028 1742c-44.667 -44.667 -84.6689 -75.833 -120.002 -93.5s-72.666 -26.5 -111.999 -26.5c-26.667 0 -51.5 3.5 -74.5 10.5s-50.5 19.167 -82.5 36.5
c-42.667 24 -81 36 -115 36c-21.333 0 -40.833 -3.83301 -58.5 -11.5s-38.5 -23.5 -62.5 -47.5l-115 117c44 44 83.333 75.167 118 93.5s72 27.5 112 27.5c31.333 0 58 -3.33301 80 -10s47.667 -19 77 -37c40.667 -24.667 78.334 -37 113.001 -37
c20 0 39.167 3.83301 57.5 11.5s39.5 23.5 63.5 47.5z" />
    <glyph glyph-name="Odieresis" unicode="&#xd6;" horiz-adv-x="1319" 
d="M1198 729c0 -80.667 -0.833008 -144.336 -2.5 -191.003s-7.16699 -94.5 -16.5 -143.5s-23.833 -93.667 -43.5 -134s-47.167 -78.166 -82.5 -113.499c-107.333 -106 -238.666 -159 -393.999 -159c-80.667 0 -153.167 13.333 -217.5 40s-123.5 66.334 -177.5 119.001
c-45.333 46.667 -78.166 98.167 -98.499 154.5s-32.833 115 -37.5 176s-7 144.833 -7 251.5s2.33301 190.5 7 251.5s17.167 119.667 37.5 176s53.166 107.833 98.499 154.5c54 52.667 113.167 92.334 177.5 119.001s136.833 40 217.5 40c155.333 0 286.666 -53 393.999 -159
c44.667 -46 77.667 -97.333 99 -154s34.333 -115.5 39 -176.5s7 -144.833 7 -251.5zM913 728.998c0 90.667 -2.16797 162.669 -6.50098 216.002s-11.333 93.333 -21 120s-24.167 51.334 -43.5 74.001c-19.333 23.333 -45.166 42.166 -77.499 56.499s-67.5 21.5 -105.5 21.5
c-36 0 -70.333 -7 -103 -21s-59.667 -33 -81 -57c-19.333 -22.667 -33.666 -47.167 -42.999 -73.5s-16 -66.333 -20 -120s-6 -125.834 -6 -216.501s2 -162.667 6 -216s10.667 -93.333 20 -120s23.666 -51.334 42.999 -74.001c44.667 -51.333 106 -77 184 -77
c77.333 0 138.333 25.667 183 77c19.333 22.667 33.833 47.5 43.5 74.5s16.667 66.833 21 119.5s6.5 124.667 6.5 216zM1028 1728c0 -38 -13.333 -70.333 -40 -97s-59.334 -40 -98.001 -40c-38 0 -70.333 13.667 -97 41s-40 59.333 -40 96s13.333 68.667 40 96s59 41 97 41
c38.667 0 71.334 -13.333 98.001 -40s40 -59 40 -97zM564.999 1728c0 -38 -13.333 -70.333 -40 -97s-59 -40 -97 -40s-70.5 13.5 -97.5 40.5s-40.5 59.167 -40.5 96.5s13.5 69.5 40.5 96.5s59.5 40.5 97.5 40.5s70.333 -13.333 97 -40s40 -59 40 -97z" />
    <glyph glyph-name="multiply" unicode="&#xd7;" 
d="M1012 297l-168 -168l-289 289l-287 -289l-168 168l289 289l-289 288l168 168l287 -288l289 288l168 -168l-289 -288z" />
    <glyph glyph-name="Oslash" unicode="&#xd8;" horiz-adv-x="1335" 
d="M1198 729c0 -80.667 -0.833984 -144.335 -2.50098 -191.002s-7.16699 -94.5 -16.5 -143.5s-23.833 -93.667 -43.5 -134s-47.167 -78.166 -82.5 -113.499c-107.333 -106 -238.666 -159 -393.999 -159c-88 0 -165 15 -231 45l-59 -123h-203l108 227l-10 10
c-45.333 46.667 -78.166 98.167 -98.499 154.5s-32.833 115 -37.5 176s-7 144.833 -7 251.5s2.33301 190.5 7 251.5s17.167 119.667 37.5 176s53.166 107.833 98.499 154.5c54 52.667 113.167 92.334 177.5 119.001s136.833 40 217.5 40c88.667 0 166 -15 232 -45l59 123
h201l-109 -227l11 -10c44.667 -46 77.667 -97.333 99 -154s34.333 -115.5 39 -176.5s7 -144.833 7 -251.5zM787.999 1184c-36 22 -79.001 33.001 -129.001 33.001c-36 0 -70.333 -7 -103 -21s-59.667 -33 -81 -57c-19.333 -22.667 -33.666 -47.167 -42.999 -73.5
s-16 -66.333 -20 -120s-6 -125.834 -6 -216.501c0 -83.333 1.5 -149 4.5 -197s7.5 -85.333 13.5 -112zM912.998 729c0 150 -6.66699 253 -20 309l-365 -762c38 -22.667 81.667 -34 131 -34c77.333 0 138.333 25.667 183 77c19.333 22.667 33.833 47.5 43.5 74.5
s16.667 66.833 21 119.5s6.5 124.667 6.5 216z" />
    <glyph glyph-name="Ugrave" unicode="&#xd9;" horiz-adv-x="1368" 
d="M1221 500c0 -100.667 -23.666 -190 -70.999 -268s-111.833 -138.167 -193.5 -180.5s-172.5 -63.5 -272.5 -63.5s-190.833 21.167 -272.5 63.5s-146.167 102.5 -193.5 180.5s-71 167.333 -71 268v958h285v-948c0 -82.667 22.667 -148 68 -196s106.666 -72 183.999 -72
c78 0 139.833 23.833 185.5 71.5s68.5 113.167 68.5 196.5v948h283v-958zM797.001 1599h-179l-233 348h281z" />
    <glyph glyph-name="Uacute" unicode="&#xda;" horiz-adv-x="1368" 
d="M1221 500c0 -100.667 -23.666 -190 -70.999 -268s-111.833 -138.167 -193.5 -180.5s-172.5 -63.5 -272.5 -63.5s-190.833 21.167 -272.5 63.5s-146.167 102.5 -193.5 180.5s-71 167.333 -71 268v958h285v-948c0 -82.667 22.667 -148 68 -196s106.666 -72 183.999 -72
c78 0 139.833 23.833 185.5 71.5s68.5 113.167 68.5 196.5v948h283v-958zM983.001 1947l-233 -348h-179l131 348h281z" />
    <glyph glyph-name="Ucircumflex" unicode="&#xdb;" horiz-adv-x="1368" 
d="M1221 500c0 -100.667 -23.666 -190 -70.999 -268s-111.833 -138.167 -193.5 -180.5s-172.5 -63.5 -272.5 -63.5s-190.833 21.167 -272.5 63.5s-146.167 102.5 -193.5 180.5s-71 167.333 -71 268v958h285v-948c0 -82.667 22.667 -148 68 -196s106.666 -72 183.999 -72
c78 0 139.833 23.833 185.5 71.5s68.5 113.167 68.5 196.5v948h283v-958zM1061 1599h-207l-170 186l-170 -186h-207l271 346h212z" />
    <glyph glyph-name="Udieresis" unicode="&#xdc;" horiz-adv-x="1368" 
d="M1221 500c0 -100.667 -23.666 -190 -70.999 -268s-111.833 -138.167 -193.5 -180.5s-172.5 -63.5 -272.5 -63.5s-190.833 21.167 -272.5 63.5s-146.167 102.5 -193.5 180.5s-71 167.333 -71 268v958h285v-948c0 -82.667 22.667 -148 68 -196s106.666 -72 183.999 -72
c78 0 139.833 23.833 185.5 71.5s68.5 113.167 68.5 196.5v948h283v-958zM1053 1728c0 -38 -13.333 -70.333 -40 -97s-59.334 -40 -98.001 -40c-38 0 -70.333 13.667 -97 41s-40 59.333 -40 96s13.333 68.667 40 96s59 41 97 41c38.667 0 71.334 -13.333 98.001 -40
s40 -59 40 -97zM590.001 1728c0 -38 -13.333 -70.333 -40 -97s-59 -40 -97 -40s-70.5 13.5 -97.5 40.5s-40.5 59.167 -40.5 96.5s13.5 69.5 40.5 96.5s59.5 40.5 97.5 40.5s70.333 -13.333 97 -40s40 -59 40 -97z" />
    <glyph glyph-name="Yacute" unicode="&#xdd;" horiz-adv-x="1171" 
d="M1165 1458l-438 -860v-598h-283v598l-438 860h309l273 -588l268 588h309zM883 1947l-233 -348h-179l131 348h281z" />
    <glyph glyph-name="Thorn" unicode="&#xde;" horiz-adv-x="1296" 
d="M1217 737c0 -62.667 -10.833 -121.166 -32.5 -175.499s-53.334 -102.333 -95.001 -144s-92.834 -74.5 -153.501 -98.5s-127.667 -36 -201 -36h-280v-283h-285v1458h285v-268h280c73.333 0 140.333 -11.833 201 -35.5s111.834 -56.167 153.501 -97.5
s73.334 -89.333 95.001 -144s32.5 -113.334 32.5 -176.001zM932 737.001c0 40 -8.83105 75 -26.498 105s-42.5 53.167 -74.5 69.5s-68.667 24.5 -110 24.5h-266v-399h266c41.333 0 78.166 8.33301 110.499 25s57.166 40 74.499 70s26 65 26 105z" />
    <glyph glyph-name="germandbls" unicode="&#xdf;" horiz-adv-x="1176" 
d="M1057 330c0 -108.667 -28 -189.998 -84 -243.998c-58.667 -57.333 -144.667 -86 -258 -86h-107v225h54c37.333 0 68 10.333 92 31c22.667 20.667 34 52.667 34 96v295c0 41.333 -10 72 -30 92c-22 22 -52.667 33 -92 33h-58v209h58c35.333 0 64.5 10.167 87.5 30.5
s34.5 51.166 34.5 92.499c0 38 -12.667 68.667 -38 92c-30.667 28.667 -78.667 43 -144 43c-68.667 0 -117.5 -16.333 -146.5 -49s-43.5 -80.334 -43.5 -143.001v-1047h-266v1067c0 136 41.5 237.167 124.5 303.5s194.833 99.5 335.5 99.5
c88.667 0 166.167 -12.833 232.5 -38.5s118.333 -65.5 156 -119.5s56.5 -120.667 56.5 -200c0 -102.667 -41.667 -179.667 -125 -231c42 -20.667 73.667 -48.167 95 -82.5s32 -81.5 32 -141.5v-327z" />
    <glyph glyph-name="agrave" unicode="&#xe0;" horiz-adv-x="1094" 
d="M956 0l-260.004 0.00195312v92c-34.667 -36 -72.167 -62 -112.5 -78s-90.166 -24 -149.499 -24s-111.666 7.83301 -156.999 23.5s-83.666 39.167 -114.999 70.5c-58.667 60 -88 140 -88 240c0 57.333 13.5 109.5 40.5 156.5s67.667 84.167 122 111.5s121.5 41 201.5 41
h252v53c0 59.333 -15.5 102.166 -46.5 128.499s-81.5 39.5 -151.5 39.5c-50.667 0 -90.167 -6.33301 -118.5 -19s-57.166 -35.667 -86.499 -69l-170 166c49.333 55.333 103 93.666 161 114.999s132.667 32 224 32c149.333 0 262.333 -31.667 339 -95s115 -157.333 115 -282
v-702zM689.996 393.002v58h-211c-47.333 0 -84 -10.667 -110 -32s-39 -51 -39 -89c0 -38.667 12.833 -68.834 38.5 -90.501s63.834 -32.5 114.501 -32.5c39.333 0 71.666 3.33301 96.999 10s49 20.334 71 41.001c26 24 39 69 39 135zM647.996 1237h-179l-233 348h281z" />
    <glyph glyph-name="aacute" unicode="&#xe1;" horiz-adv-x="1094" 
d="M956 0l-260.004 0.00195312v92c-34.667 -36 -72.167 -62 -112.5 -78s-90.166 -24 -149.499 -24s-111.666 7.83301 -156.999 23.5s-83.666 39.167 -114.999 70.5c-58.667 60 -88 140 -88 240c0 57.333 13.5 109.5 40.5 156.5s67.667 84.167 122 111.5s121.5 41 201.5 41
h252v53c0 59.333 -15.5 102.166 -46.5 128.499s-81.5 39.5 -151.5 39.5c-50.667 0 -90.167 -6.33301 -118.5 -19s-57.166 -35.667 -86.499 -69l-170 166c49.333 55.333 103 93.666 161 114.999s132.667 32 224 32c149.333 0 262.333 -31.667 339 -95s115 -157.333 115 -282
v-702zM689.996 393.002v58h-211c-47.333 0 -84 -10.667 -110 -32s-39 -51 -39 -89c0 -38.667 12.833 -68.834 38.5 -90.501s63.834 -32.5 114.501 -32.5c39.333 0 71.666 3.33301 96.999 10s49 20.334 71 41.001c26 24 39 69 39 135zM833.996 1585l-233 -348h-179l131 348
h281z" />
    <glyph glyph-name="acircumflex" unicode="&#xe2;" horiz-adv-x="1094" 
d="M956 0l-260.004 0.00195312v92c-34.667 -36 -72.167 -62 -112.5 -78s-90.166 -24 -149.499 -24s-111.666 7.83301 -156.999 23.5s-83.666 39.167 -114.999 70.5c-58.667 60 -88 140 -88 240c0 57.333 13.5 109.5 40.5 156.5s67.667 84.167 122 111.5s121.5 41 201.5 41
h252v53c0 59.333 -15.5 102.166 -46.5 128.499s-81.5 39.5 -151.5 39.5c-50.667 0 -90.167 -6.33301 -118.5 -19s-57.166 -35.667 -86.499 -69l-170 166c49.333 55.333 103 93.666 161 114.999s132.667 32 224 32c149.333 0 262.333 -31.667 339 -95s115 -157.333 115 -282
v-702zM689.996 393.002v58h-211c-47.333 0 -84 -10.667 -110 -32s-39 -51 -39 -89c0 -38.667 12.833 -68.834 38.5 -90.501s63.834 -32.5 114.501 -32.5c39.333 0 71.666 3.33301 96.999 10s49 20.334 71 41.001c26 24 39 69 39 135zM911.996 1237h-207l-170 186l-170 -186
h-207l271 346h212z" />
    <glyph glyph-name="atilde" unicode="&#xe3;" horiz-adv-x="1094" 
d="M956 0l-260.004 0.00195312v92c-34.667 -36 -72.167 -62 -112.5 -78s-90.166 -24 -149.499 -24s-111.666 7.83301 -156.999 23.5s-83.666 39.167 -114.999 70.5c-58.667 60 -88 140 -88 240c0 57.333 13.5 109.5 40.5 156.5s67.667 84.167 122 111.5s121.5 41 201.5 41
h252v53c0 59.333 -15.5 102.166 -46.5 128.499s-81.5 39.5 -151.5 39.5c-50.667 0 -90.167 -6.33301 -118.5 -19s-57.166 -35.667 -86.499 -69l-170 166c49.333 55.333 103 93.666 161 114.999s132.667 32 224 32c149.333 0 262.333 -31.667 339 -95s115 -157.333 115 -282
v-702zM689.996 393.002v58h-211c-47.333 0 -84 -10.667 -110 -32s-39 -51 -39 -89c0 -38.667 12.833 -68.834 38.5 -90.501s63.834 -32.5 114.501 -32.5c39.333 0 71.666 3.33301 96.999 10s49 20.334 71 41.001c26 24 39 69 39 135zM903.996 1380
c-44.667 -44.667 -84.6689 -75.833 -120.002 -93.5s-72.666 -26.5 -111.999 -26.5c-26.667 0 -51.5 3.5 -74.5 10.5s-50.5 19.167 -82.5 36.5c-42.667 24 -81 36 -115 36c-21.333 0 -40.833 -3.83301 -58.5 -11.5s-38.5 -23.5 -62.5 -47.5l-115 117
c44 44 83.333 75.167 118 93.5s72 27.5 112 27.5c31.333 0 58 -3.33301 80 -10s47.667 -19 77 -37c40.667 -24.667 78.334 -37 113.001 -37c20 0 39.167 3.83301 57.5 11.5s39.5 23.5 63.5 47.5z" />
    <glyph glyph-name="adieresis" unicode="&#xe4;" horiz-adv-x="1094" 
d="M956 0l-260.004 0.00195312v92c-34.667 -36 -72.167 -62 -112.5 -78s-90.166 -24 -149.499 -24s-111.666 7.83301 -156.999 23.5s-83.666 39.167 -114.999 70.5c-58.667 60 -88 140 -88 240c0 57.333 13.5 109.5 40.5 156.5s67.667 84.167 122 111.5s121.5 41 201.5 41
h252v53c0 59.333 -15.5 102.166 -46.5 128.499s-81.5 39.5 -151.5 39.5c-50.667 0 -90.167 -6.33301 -118.5 -19s-57.166 -35.667 -86.499 -69l-170 166c49.333 55.333 103 93.666 161 114.999s132.667 32 224 32c149.333 0 262.333 -31.667 339 -95s115 -157.333 115 -282
v-702zM689.996 393.002v58h-211c-47.333 0 -84 -10.667 -110 -32s-39 -51 -39 -89c0 -38.667 12.833 -68.834 38.5 -90.501s63.834 -32.5 114.501 -32.5c39.333 0 71.666 3.33301 96.999 10s49 20.334 71 41.001c26 24 39 69 39 135zM903.996 1366
c0 -38 -13.333 -70.333 -40 -97s-59.334 -40 -98.001 -40c-38 0 -70.333 13.667 -97 41s-40 59.333 -40 96s13.333 68.667 40 96s59 41 97 41c38.667 0 71.334 -13.333 98.001 -40s40 -59 40 -97zM440.996 1366c0 -38 -13.333 -70.333 -40 -97s-59 -40 -97 -40
s-70.5 13.5 -97.5 40.5s-40.5 59.167 -40.5 96.5s13.5 69.5 40.5 96.5s59.5 40.5 97.5 40.5s70.333 -13.333 97 -40s40 -59 40 -97z" />
    <glyph glyph-name="aring" unicode="&#xe5;" horiz-adv-x="1094" 
d="M956 0l-260.004 0.00195312v92c-34.667 -36 -72.167 -62 -112.5 -78s-90.166 -24 -149.499 -24s-111.666 7.83301 -156.999 23.5s-83.666 39.167 -114.999 70.5c-58.667 60 -88 140 -88 240c0 57.333 13.5 109.5 40.5 156.5s67.667 84.167 122 111.5s121.5 41 201.5 41
h252v53c0 59.333 -15.5 102.166 -46.5 128.499s-81.5 39.5 -151.5 39.5c-50.667 0 -90.167 -6.33301 -118.5 -19s-57.166 -35.667 -86.499 -69l-170 166c49.333 55.333 103 93.666 161 114.999s132.667 32 224 32c149.333 0 262.333 -31.667 339 -95s115 -157.333 115 -282
v-702zM689.996 393.002v58h-211c-47.333 0 -84 -10.667 -110 -32s-39 -51 -39 -89c0 -38.667 12.833 -68.834 38.5 -90.501s63.834 -32.5 114.501 -32.5c39.333 0 71.666 3.33301 96.999 10s49 20.334 71 41.001c26 24 39 69 39 135zM802.996 1464
c0 -73.333 -26 -136.333 -78 -189s-115.333 -79 -190 -79c-73.333 0 -136.333 26.333 -189 79s-79 115.667 -79 189c0 74 26.333 137.333 79 190s115.667 79 189 79c74 0 137.167 -26.167 189.5 -78.5s78.5 -115.833 78.5 -190.5zM653.996 1464c0 34 -11.333 62.333 -34 85
s-51 34 -85 34s-62.333 -11.333 -85 -34s-34 -51 -34 -85c0 -33.333 11.5 -61.833 34.5 -85.5s51.167 -35.5 84.5 -35.5s61.5 11.833 84.5 35.5s34.5 52.167 34.5 85.5z" />
    <glyph glyph-name="ae" unicode="&#xe6;" horiz-adv-x="1716" 
d="M1620 451l-667.999 0.000976562c0 -70 20.833 -127.167 62.5 -171.5s98.834 -66.5 171.501 -66.5c56.667 0 102.167 7.83301 136.5 23.5s69.166 41.167 104.499 76.5l162 -157c-58 -58 -117.333 -100.5 -178 -127.5s-136.334 -40.5 -227.001 -40.5
c-163.333 0 -288.333 49.667 -375 149c-38 -40.667 -76 -72 -114 -94s-76.833 -36.667 -116.5 -44s-87.834 -11 -144.501 -11c-118 0 -208.667 32 -272 96c-58.667 60 -88 140 -88 240c0 57.333 13.5 109.5 40.5 156.5s67.667 84.167 122 111.5s121.5 41 201.5 41h252v53
c0 59.333 -15.5 102.166 -46.5 128.499s-81.5 39.5 -151.5 39.5c-50.667 0 -90.167 -6.33301 -118.5 -19s-57.166 -35.667 -86.499 -69l-170 166c49.333 55.333 103 93.666 161 114.999s132.667 32 224 32c161.333 0 278 -38.667 350 -116c76 77.333 177 116 303 116
c96 0 179.167 -21.667 249.5 -65s123.833 -104.166 160.5 -182.499s55 -165.833 55 -262.5v-118zM1358 633.001c-2 42.667 -10.334 81 -25.001 115c-14.667 32.667 -37.167 59.167 -67.5 79.5s-67.166 30.5 -110.499 30.5c-42 0 -78.333 -10.167 -109 -30.5
s-53.667 -46.833 -69 -79.5c-14.667 -36.667 -23 -75 -25 -115h406zM690 393.001v58h-211c-47.333 0 -84 -10.667 -110 -32s-39 -51 -39 -89c0 -38.667 12.833 -68.834 38.5 -90.501s63.834 -32.5 114.501 -32.5c39.333 0 71.666 3.33301 96.999 10s49 20.334 71 41.001
c26 24 39 69 39 135z" />
    <glyph glyph-name="ccedilla" unicode="&#xe7;" horiz-adv-x="987" 
d="M926 133c-94 -96.667 -211.66 -144.998 -352.993 -144.998c-58.667 0 -115.334 8.66699 -170.001 26s-105.5 47.166 -152.5 89.499s-84.5 99.5 -112.5 171.5s-42 158.667 -42 260c0 102 14 188.667 42 260s65.5 128 112.5 170s98.167 71.5 153.5 88.5
s111.666 25.5 168.999 25.5c75.333 0 141.166 -11.5 197.499 -34.5s108.166 -59.167 155.499 -108.5l-181 -180c-26.667 30 -53.334 51.5 -80.001 64.5s-57.334 19.5 -92.001 19.5c-62 0 -112.333 -23.333 -151 -70c-40 -50 -60 -128.333 -60 -235
c0 -108.667 20 -188 60 -238c38.667 -46.667 89 -70 151 -70c34.667 0 65.167 6.66699 91.5 20s53.166 34.666 80.499 63.999zM666.007 -122.998l-91 -299h-247l141 299h197z" />
    <glyph glyph-name="egrave" unicode="&#xe8;" horiz-adv-x="1122" 
d="M1026 451l-668 -0.000976562c0 -70 20.833 -127.167 62.5 -171.5s98.834 -66.5 171.501 -66.5c56.667 0 102 7.66699 136 23s69.333 41 106 77l161 -157c-58 -58 -117.333 -100.5 -178 -127.5s-136.334 -40.5 -227.001 -40.5c-144 0 -262.333 41.5 -355 124.5
s-139 223.833 -139 422.5c0 112.667 19.333 210.167 58 292.5s93.167 144.833 163.5 187.5s151.5 64 243.5 64c96 0 179.167 -21.667 249.5 -65s123.833 -104.166 160.5 -182.499s55 -165.833 55 -262.5v-118zM764 632.999c-2 42.667 -10.334 81 -25.001 115
c-14.667 32.667 -37.167 59.167 -67.5 79.5s-67.166 30.5 -110.499 30.5c-42 0 -78.333 -10.167 -109 -30.5s-53.667 -46.833 -69 -79.5c-14.667 -36.667 -23 -75 -25 -115h406zM679.999 1237h-179l-233 348h281z" />
    <glyph glyph-name="eacute" unicode="&#xe9;" horiz-adv-x="1122" 
d="M1026 451l-668 -0.000976562c0 -70 20.833 -127.167 62.5 -171.5s98.834 -66.5 171.501 -66.5c56.667 0 102 7.66699 136 23s69.333 41 106 77l161 -157c-58 -58 -117.333 -100.5 -178 -127.5s-136.334 -40.5 -227.001 -40.5c-144 0 -262.333 41.5 -355 124.5
s-139 223.833 -139 422.5c0 112.667 19.333 210.167 58 292.5s93.167 144.833 163.5 187.5s151.5 64 243.5 64c96 0 179.167 -21.667 249.5 -65s123.833 -104.166 160.5 -182.499s55 -165.833 55 -262.5v-118zM764 632.999c-2 42.667 -10.334 81 -25.001 115
c-14.667 32.667 -37.167 59.167 -67.5 79.5s-67.166 30.5 -110.499 30.5c-42 0 -78.333 -10.167 -109 -30.5s-53.667 -46.833 -69 -79.5c-14.667 -36.667 -23 -75 -25 -115h406zM865.999 1585l-233 -348h-179l131 348h281z" />
    <glyph glyph-name="ecircumflex" unicode="&#xea;" horiz-adv-x="1122" 
d="M1026 451l-668 -0.000976562c0 -70 20.833 -127.167 62.5 -171.5s98.834 -66.5 171.501 -66.5c56.667 0 102 7.66699 136 23s69.333 41 106 77l161 -157c-58 -58 -117.333 -100.5 -178 -127.5s-136.334 -40.5 -227.001 -40.5c-144 0 -262.333 41.5 -355 124.5
s-139 223.833 -139 422.5c0 112.667 19.333 210.167 58 292.5s93.167 144.833 163.5 187.5s151.5 64 243.5 64c96 0 179.167 -21.667 249.5 -65s123.833 -104.166 160.5 -182.499s55 -165.833 55 -262.5v-118zM764 632.999c-2 42.667 -10.334 81 -25.001 115
c-14.667 32.667 -37.167 59.167 -67.5 79.5s-67.166 30.5 -110.499 30.5c-42 0 -78.333 -10.167 -109 -30.5s-53.667 -46.833 -69 -79.5c-14.667 -36.667 -23 -75 -25 -115h406zM943.999 1237h-207l-170 186l-170 -186h-207l271 346h212z" />
    <glyph glyph-name="edieresis" unicode="&#xeb;" horiz-adv-x="1122" 
d="M1026 451l-668 -0.000976562c0 -70 20.833 -127.167 62.5 -171.5s98.834 -66.5 171.501 -66.5c56.667 0 102 7.66699 136 23s69.333 41 106 77l161 -157c-58 -58 -117.333 -100.5 -178 -127.5s-136.334 -40.5 -227.001 -40.5c-144 0 -262.333 41.5 -355 124.5
s-139 223.833 -139 422.5c0 112.667 19.333 210.167 58 292.5s93.167 144.833 163.5 187.5s151.5 64 243.5 64c96 0 179.167 -21.667 249.5 -65s123.833 -104.166 160.5 -182.499s55 -165.833 55 -262.5v-118zM764 632.999c-2 42.667 -10.334 81 -25.001 115
c-14.667 32.667 -37.167 59.167 -67.5 79.5s-67.166 30.5 -110.499 30.5c-42 0 -78.333 -10.167 -109 -30.5s-53.667 -46.833 -69 -79.5c-14.667 -36.667 -23 -75 -25 -115h406zM935.999 1366c0 -38 -13.333 -70.333 -40 -97s-59.334 -40 -98.001 -40
c-38 0 -70.333 13.667 -97 41s-40 59.333 -40 96s13.333 68.667 40 96s59 41 97 41c38.667 0 71.334 -13.333 98.001 -40s40 -59 40 -97zM472.999 1366c0 -38 -13.333 -70.333 -40 -97s-59 -40 -97 -40s-70.5 13.5 -97.5 40.5s-40.5 59.167 -40.5 96.5s13.5 69.5 40.5 96.5
s59.5 40.5 97.5 40.5s70.333 -13.333 97 -40s40 -59 40 -97z" />
    <glyph glyph-name="igrave" unicode="&#xec;" horiz-adv-x="563" 
d="M416 0h-266v1067h266v-1067zM451 1237h-179l-233 348h281z" />
    <glyph glyph-name="iacute" unicode="&#xed;" horiz-adv-x="563" 
d="M416 0h-266v1067h266v-1067zM532 1585l-233 -348h-179l131 348h281z" />
    <glyph glyph-name="icircumflex" unicode="&#xee;" horiz-adv-x="563" 
d="M416 0h-266v1067h266v-1067zM664 1237h-207l-170 186l-170 -186h-207l271 346h212z" />
    <glyph glyph-name="idieresis" unicode="&#xef;" horiz-adv-x="563" 
d="M416 0h-266v1067h266v-1067zM650 1366c0 -38 -13.333 -70.333 -40 -97s-59.334 -40 -98.001 -40c-38 0 -70.333 13.667 -97 41s-40 59.333 -40 96s13.333 68.667 40 96s59 41 97 41c38.667 0 71.334 -13.333 98.001 -40s40 -59 40 -97zM187 1366
c0 -38 -13.333 -70.333 -40 -97s-59 -40 -97 -40s-70.5 13.5 -97.5 40.5s-40.5 59.167 -40.5 96.5s13.5 69.5 40.5 96.5s59.5 40.5 97.5 40.5s70.333 -13.333 97 -40s40 -59 40 -97z" />
    <glyph glyph-name="eth" unicode="&#xf0;" 
d="M995 520c0 -99.333 -8.16895 -179.669 -24.502 -241.002s-47.5 -116 -93.5 -164c-82 -84.667 -189.333 -127 -322 -127s-240 42.333 -322 127c-44.667 46.667 -75.5 101 -92.5 163s-25.5 142.667 -25.5 242c0 43.333 1.83301 85.833 5.5 127.5s9.83398 78 18.501 109
s21 60.833 37 89.5s35 54.667 57 78c44 46 105 79.333 183 100c34.667 9.33301 86.334 14 155.001 14l-69 127h-234v187h140l-64 123h285l63 -123h189v-187h-95l82 -157c50 -95.333 83.667 -175.166 101 -239.499s26 -147.166 26 -248.499zM728.998 519.997
c0 63.333 -3.5 114.5 -10.5 153.5s-21.833 69.833 -44.5 92.5c-30 30 -69.667 45 -119 45c-48 0 -87 -15 -117 -45c-23.333 -24.667 -38.666 -57 -45.999 -97s-11 -89.667 -11 -149c0 -58.667 3.66699 -108.334 11 -149.001s22.666 -73.667 45.999 -99
c31.333 -30 70.333 -45 117 -45c48 0 87.667 15 119 45c22.667 23.333 37.5 54.833 44.5 94.5s10.5 90.834 10.5 153.501z" />
    <glyph glyph-name="ntilde" unicode="&#xf1;" horiz-adv-x="1174" 
d="M1036 0h-266.001v645c0 67.333 -17.167 116.666 -51.5 147.999s-75.833 47 -124.5 47s-90.5 -15.667 -125.5 -47s-52.5 -80.666 -52.5 -147.999v-645h-266v1067h260v-98c34 35.333 74.167 62.5 120.5 81.5s94.833 28.5 145.5 28.5c104 0 188 -31.333 252 -94
c40.667 -40.667 68.834 -85 84.501 -133s23.5 -104.667 23.5 -170v-682zM962.999 1380c-44.667 -44.667 -84.6689 -75.833 -120.002 -93.5s-72.666 -26.5 -111.999 -26.5c-26.667 0 -51.5 3.5 -74.5 10.5s-50.5 19.167 -82.5 36.5c-42.667 24 -81 36 -115 36
c-21.333 0 -40.833 -3.83301 -58.5 -11.5s-38.5 -23.5 -62.5 -47.5l-115 117c44 44 83.333 75.167 118 93.5s72 27.5 112 27.5c31.333 0 58 -3.33301 80 -10s47.667 -19 77 -37c40.667 -24.667 78.334 -37 113.001 -37c20 0 39.167 3.83301 57.5 11.5s39.5 23.5 63.5 47.5z
" />
    <glyph glyph-name="ograve" unicode="&#xf2;" 
d="M1008 535c0 -66 -3.5 -124 -10.5 -174s-19.5 -94.833 -37.5 -134.5s-42.333 -75.5 -73 -107.5c-82.667 -87.333 -193.334 -131 -332.001 -131c-137.333 0 -247.333 43.667 -330 131c-23.333 24 -42.666 49.667 -57.999 77s-27.833 58 -37.5 92
s-16.334 72.833 -20.001 116.5s-5.5 87.167 -5.5 130.5c0 44 1.83301 87.5 5.5 130.5s10.167 81 19.5 114s21.833 63.333 37.5 91s35.167 53.5 58.5 77.5c82.667 87.333 192.667 131 330 131c138.667 0 249.334 -43.667 332.001 -131c46 -48 77.667 -103.333 95 -166
s26 -145 26 -247zM741 535c0 67.333 -3.83301 120.835 -11.5 160.502s-24.167 72.167 -49.5 97.5c-32.667 31.333 -74.334 47 -125.001 47c-49.333 0 -90.333 -15.667 -123 -47c-25.333 -26.667 -41.833 -60.5 -49.5 -101.5s-11.5 -93.167 -11.5 -156.5
c0 -64 3.83301 -116.833 11.5 -158.5s24.167 -75.834 49.5 -102.501c32.667 -31.333 73.667 -47 123 -47c50.667 0 92.334 15.667 125.001 47c25.333 25.333 41.833 58.166 49.5 98.499s11.5 94.5 11.5 162.5zM662 1237h-179l-233 348h281z" />
    <glyph glyph-name="oacute" unicode="&#xf3;" 
d="M1008 535c0 -66 -3.5 -124 -10.5 -174s-19.5 -94.833 -37.5 -134.5s-42.333 -75.5 -73 -107.5c-82.667 -87.333 -193.334 -131 -332.001 -131c-137.333 0 -247.333 43.667 -330 131c-23.333 24 -42.666 49.667 -57.999 77s-27.833 58 -37.5 92
s-16.334 72.833 -20.001 116.5s-5.5 87.167 -5.5 130.5c0 44 1.83301 87.5 5.5 130.5s10.167 81 19.5 114s21.833 63.333 37.5 91s35.167 53.5 58.5 77.5c82.667 87.333 192.667 131 330 131c138.667 0 249.334 -43.667 332.001 -131c46 -48 77.667 -103.333 95 -166
s26 -145 26 -247zM741 535c0 67.333 -3.83301 120.835 -11.5 160.502s-24.167 72.167 -49.5 97.5c-32.667 31.333 -74.334 47 -125.001 47c-49.333 0 -90.333 -15.667 -123 -47c-25.333 -26.667 -41.833 -60.5 -49.5 -101.5s-11.5 -93.167 -11.5 -156.5
c0 -64 3.83301 -116.833 11.5 -158.5s24.167 -75.834 49.5 -102.501c32.667 -31.333 73.667 -47 123 -47c50.667 0 92.334 15.667 125.001 47c25.333 25.333 41.833 58.166 49.5 98.499s11.5 94.5 11.5 162.5zM856 1585l-233 -348h-179l131 348h281z" />
    <glyph glyph-name="ocircumflex" unicode="&#xf4;" 
d="M1008 535c0 -66 -3.5 -124 -10.5 -174s-19.5 -94.833 -37.5 -134.5s-42.333 -75.5 -73 -107.5c-82.667 -87.333 -193.334 -131 -332.001 -131c-137.333 0 -247.333 43.667 -330 131c-23.333 24 -42.666 49.667 -57.999 77s-27.833 58 -37.5 92
s-16.334 72.833 -20.001 116.5s-5.5 87.167 -5.5 130.5c0 44 1.83301 87.5 5.5 130.5s10.167 81 19.5 114s21.833 63.333 37.5 91s35.167 53.5 58.5 77.5c82.667 87.333 192.667 131 330 131c138.667 0 249.334 -43.667 332.001 -131c46 -48 77.667 -103.333 95 -166
s26 -145 26 -247zM741 535c0 67.333 -3.83301 120.835 -11.5 160.502s-24.167 72.167 -49.5 97.5c-32.667 31.333 -74.334 47 -125.001 47c-49.333 0 -90.333 -15.667 -123 -47c-25.333 -26.667 -41.833 -60.5 -49.5 -101.5s-11.5 -93.167 -11.5 -156.5
c0 -64 3.83301 -116.833 11.5 -158.5s24.167 -75.834 49.5 -102.501c32.667 -31.333 73.667 -47 123 -47c50.667 0 92.334 15.667 125.001 47c25.333 25.333 41.833 58.166 49.5 98.499s11.5 94.5 11.5 162.5zM934 1237h-207l-170 186l-170 -186h-207l271 346h212z" />
    <glyph glyph-name="otilde" unicode="&#xf5;" 
d="M1008 535c0 -66 -3.5 -124 -10.5 -174s-19.5 -94.833 -37.5 -134.5s-42.333 -75.5 -73 -107.5c-82.667 -87.333 -193.334 -131 -332.001 -131c-137.333 0 -247.333 43.667 -330 131c-23.333 24 -42.666 49.667 -57.999 77s-27.833 58 -37.5 92
s-16.334 72.833 -20.001 116.5s-5.5 87.167 -5.5 130.5c0 44 1.83301 87.5 5.5 130.5s10.167 81 19.5 114s21.833 63.333 37.5 91s35.167 53.5 58.5 77.5c82.667 87.333 192.667 131 330 131c138.667 0 249.334 -43.667 332.001 -131c46 -48 77.667 -103.333 95 -166
s26 -145 26 -247zM741 535c0 67.333 -3.83301 120.835 -11.5 160.502s-24.167 72.167 -49.5 97.5c-32.667 31.333 -74.334 47 -125.001 47c-49.333 0 -90.333 -15.667 -123 -47c-25.333 -26.667 -41.833 -60.5 -49.5 -101.5s-11.5 -93.167 -11.5 -156.5
c0 -64 3.83301 -116.833 11.5 -158.5s24.167 -75.834 49.5 -102.501c32.667 -31.333 73.667 -47 123 -47c50.667 0 92.334 15.667 125.001 47c25.333 25.333 41.833 58.166 49.5 98.499s11.5 94.5 11.5 162.5zM926 1380c-44.667 -44.667 -84.6689 -75.833 -120.002 -93.5
s-72.666 -26.5 -111.999 -26.5c-26.667 0 -51.5 3.5 -74.5 10.5s-50.5 19.167 -82.5 36.5c-42.667 24 -81 36 -115 36c-21.333 0 -40.833 -3.83301 -58.5 -11.5s-38.5 -23.5 -62.5 -47.5l-115 117c44 44 83.333 75.167 118 93.5s72 27.5 112 27.5
c31.333 0 58 -3.33301 80 -10s47.667 -19 77 -37c40.667 -24.667 78.334 -37 113.001 -37c20 0 39.167 3.83301 57.5 11.5s39.5 23.5 63.5 47.5z" />
    <glyph glyph-name="odieresis" unicode="&#xf6;" 
d="M1008 535c0 -66 -3.5 -124 -10.5 -174s-19.5 -94.833 -37.5 -134.5s-42.333 -75.5 -73 -107.5c-82.667 -87.333 -193.334 -131 -332.001 -131c-137.333 0 -247.333 43.667 -330 131c-23.333 24 -42.666 49.667 -57.999 77s-27.833 58 -37.5 92
s-16.334 72.833 -20.001 116.5s-5.5 87.167 -5.5 130.5c0 44 1.83301 87.5 5.5 130.5s10.167 81 19.5 114s21.833 63.333 37.5 91s35.167 53.5 58.5 77.5c82.667 87.333 192.667 131 330 131c138.667 0 249.334 -43.667 332.001 -131c46 -48 77.667 -103.333 95 -166
s26 -145 26 -247zM741 535c0 67.333 -3.83301 120.835 -11.5 160.502s-24.167 72.167 -49.5 97.5c-32.667 31.333 -74.334 47 -125.001 47c-49.333 0 -90.333 -15.667 -123 -47c-25.333 -26.667 -41.833 -60.5 -49.5 -101.5s-11.5 -93.167 -11.5 -156.5
c0 -64 3.83301 -116.833 11.5 -158.5s24.167 -75.834 49.5 -102.501c32.667 -31.333 73.667 -47 123 -47c50.667 0 92.334 15.667 125.001 47c25.333 25.333 41.833 58.166 49.5 98.499s11.5 94.5 11.5 162.5zM926 1366c0 -38 -13.333 -70.333 -40 -97
s-59.334 -40 -98.001 -40c-38 0 -70.333 13.667 -97 41s-40 59.333 -40 96s13.333 68.667 40 96s59 41 97 41c38.667 0 71.334 -13.333 98.001 -40s40 -59 40 -97zM463 1366c0 -38 -13.333 -70.333 -40 -97s-59 -40 -97 -40s-70.5 13.5 -97.5 40.5s-40.5 59.167 -40.5 96.5
s13.5 69.5 40.5 96.5s59.5 40.5 97.5 40.5s70.333 -13.333 97 -40s40 -59 40 -97z" />
    <glyph glyph-name="divide" unicode="&#xf7;" 
d="M735 1008c0 -32 -8 -61.833 -24 -89.5s-37.833 -49.5 -65.5 -65.5s-57.167 -24 -88.5 -24s-61 8 -89 24s-50.167 37.667 -66.5 65s-24.5 57.333 -24.5 90c0 32 8.16699 61.833 24.5 89.5s38.333 49.667 66 66s57.5 24.5 89.5 24.5s61.667 -8.16699 89 -24.5
s49 -38.5 65 -66.5s24 -57.667 24 -89zM1018 461h-924v248h924v-248zM735 162c0 -32 -8 -61.832 -24 -89.499s-37.833 -49.667 -65.5 -66s-57.167 -24.5 -88.5 -24.5s-61 8.16699 -89 24.5s-50.167 38.166 -66.5 65.499s-24.5 57.333 -24.5 90c0 32 8.16699 61.667 24.5 89
s38.5 49 66.5 65s57.667 24 89 24s60.833 -8 88.5 -24s49.5 -37.833 65.5 -65.5s24 -57.167 24 -88.5z" />
    <glyph glyph-name="oslash" unicode="&#xf8;" 
d="M1008 535c0 -66 -3.50098 -124 -10.501 -174s-19.5 -94.833 -37.5 -134.5s-42.333 -75.5 -73 -107.5c-82.667 -87.333 -193.334 -131 -332.001 -131c-80.667 0 -151.667 15.667 -213 47l-74 -125h-162l121 207l-2 2c-46.667 46.667 -78.5 101.834 -95.5 165.501
s-25.5 147.167 -25.5 250.5c0 44 1.83301 87.5 5.5 130.5s10.167 81 19.5 114s21.833 63.333 37.5 91s35.167 53.5 58.5 77.5c82.667 87.333 192.667 131 330 131c84.667 0 156.334 -15 215.001 -45l72 123h164l-123 -207l4 -2c38 -18.667 65.833 -47.667 83.5 -87
s28.334 -82.833 32.001 -130.5s5.5 -112.834 5.5 -195.501zM654.999 813c-29.333 18 -62.667 27 -100 27c-49.333 0 -90.333 -15.667 -123 -47c-25.333 -26.667 -41.833 -60.5 -49.5 -101.5s-11.5 -93.167 -11.5 -156.5c0 -79.333 4.66699 -138.333 14 -177zM740.998 535
c0 71.333 -5.33398 129.334 -16.001 174.001l-268 -455c29.333 -18 62 -27 98 -27c50.667 0 92.334 15.667 125.001 47c25.333 25.333 41.833 58.166 49.5 98.499s11.5 94.5 11.5 162.5z" />
    <glyph glyph-name="ugrave" unicode="&#xf9;" horiz-adv-x="1174" 
d="M1024 0l-260.001 -0.000976562v98c-70 -73.333 -158.667 -110 -266 -110c-105.333 0 -189.333 31.333 -252 94c-40 40 -68.167 84.833 -84.5 134.5s-24.5 105.834 -24.5 168.501v682h266v-645c0 -68 17.333 -117.5 52 -148.5s76.334 -46.5 125.001 -46.5
c49.333 0 91.333 15.5 126 46.5s52 80.5 52 148.5v645h266v-1067zM692.999 1237h-179l-233 348h281z" />
    <glyph glyph-name="uacute" unicode="&#xfa;" horiz-adv-x="1174" 
d="M1024 0l-260.001 -0.000976562v98c-70 -73.333 -158.667 -110 -266 -110c-105.333 0 -189.333 31.333 -252 94c-40 40 -68.167 84.833 -84.5 134.5s-24.5 105.834 -24.5 168.501v682h266v-645c0 -68 17.333 -117.5 52 -148.5s76.334 -46.5 125.001 -46.5
c49.333 0 91.333 15.5 126 46.5s52 80.5 52 148.5v645h266v-1067zM878.999 1585l-233 -348h-179l131 348h281z" />
    <glyph glyph-name="ucircumflex" unicode="&#xfb;" horiz-adv-x="1174" 
d="M1024 0l-260.001 -0.000976562v98c-70 -73.333 -158.667 -110 -266 -110c-105.333 0 -189.333 31.333 -252 94c-40 40 -68.167 84.833 -84.5 134.5s-24.5 105.834 -24.5 168.501v682h266v-645c0 -68 17.333 -117.5 52 -148.5s76.334 -46.5 125.001 -46.5
c49.333 0 91.333 15.5 126 46.5s52 80.5 52 148.5v645h266v-1067zM956.999 1237h-207l-170 186l-170 -186h-207l271 346h212z" />
    <glyph glyph-name="udieresis" unicode="&#xfc;" horiz-adv-x="1174" 
d="M1024 0l-260.001 -0.000976562v98c-70 -73.333 -158.667 -110 -266 -110c-105.333 0 -189.333 31.333 -252 94c-40 40 -68.167 84.833 -84.5 134.5s-24.5 105.834 -24.5 168.501v682h266v-645c0 -68 17.333 -117.5 52 -148.5s76.334 -46.5 125.001 -46.5
c49.333 0 91.333 15.5 126 46.5s52 80.5 52 148.5v645h266v-1067zM948.999 1366c0 -38 -13.333 -70.333 -40 -97s-59.334 -40 -98.001 -40c-38 0 -70.333 13.667 -97 41s-40 59.333 -40 96s13.333 68.667 40 96s59 41 97 41c38.667 0 71.334 -13.333 98.001 -40
s40 -59 40 -97zM485.999 1366c0 -38 -13.333 -70.333 -40 -97s-59 -40 -97 -40s-70.5 13.5 -97.5 40.5s-40.5 59.167 -40.5 96.5s13.5 69.5 40.5 96.5s59.5 40.5 97.5 40.5s70.333 -13.333 97 -40s40 -59 40 -97z" />
    <glyph glyph-name="yacute" unicode="&#xfd;" horiz-adv-x="1171" 
d="M1004 1067l-456.999 -1239c-24 -62 -50.667 -107.667 -80 -137c-27.333 -28 -60.5 -48.667 -99.5 -62s-82.167 -20 -129.5 -20h-105v239h62c37.333 0 65.666 6.83301 84.999 20.5s35.333 39.167 48 76.5l45 131l-365 991h281l221 -659l213 659h281zM799.001 1585
l-233 -348h-179l131 348h281z" />
    <glyph glyph-name="thorn" unicode="&#xfe;" horiz-adv-x="1151" 
d="M1042 535c0 -110.667 -6.33203 -201.833 -18.999 -273.5s-42.334 -130.834 -89.001 -177.501c-30 -29.333 -67.833 -52.666 -113.5 -69.999s-94.5 -26 -146.5 -26c-56.667 0 -105.334 8.33301 -146.001 25s-78 43.667 -112 81v-485h-266v1849h266v-485
c62.667 70.667 148.667 106 258 106c52 0 100.833 -8.5 146.5 -25.5s83.5 -40.5 113.5 -70.5c46.667 -46.667 76.334 -105.5 89.001 -176.5s19 -161.5 19 -271.5zM776.001 535.001c0 101.333 -11.666 177.5 -34.999 228.5s-71.666 76.5 -144.999 76.5
c-51.333 0 -90 -12.667 -116 -38s-43.167 -59.333 -51.5 -102s-12.5 -97.667 -12.5 -165c0 -68 4.16699 -123.5 12.5 -166.5s25.666 -77.333 51.999 -103s64.833 -38.5 115.5 -38.5c73.333 0 121.666 25.833 144.999 77.5s35 128.5 35 230.5z" />
    <glyph glyph-name="ydieresis" unicode="&#xff;" horiz-adv-x="1012" 
d="M1004 1067l-456.999 -1239c-24 -62 -50.667 -107.667 -80 -137c-27.333 -28 -60.5 -48.667 -99.5 -62s-82.167 -20 -129.5 -20h-105v239h62c37.333 0 65.666 6.83301 84.999 20.5s35.333 39.167 48 76.5l45 131l-365 991h281l221 -659l213 659h281zM869.001 1366
c0 -38 -13.333 -70.333 -40 -97s-59.334 -40 -98.001 -40c-38 0 -70.333 13.667 -97 41s-40 59.333 -40 96s13.333 68.667 40 96s59 41 97 41c38.667 0 71.334 -13.333 98.001 -40s40 -59 40 -97zM406.001 1366c0 -38 -13.333 -70.333 -40 -97s-59 -40 -97 -40
s-70.5 13.5 -97.5 40.5s-40.5 59.167 -40.5 96.5s13.5 69.5 40.5 96.5s59.5 40.5 97.5 40.5s70.333 -13.333 97 -40s40 -59 40 -97z" />
    <glyph glyph-name="OE" unicode="&#x152;" horiz-adv-x="1978" 
d="M1868 0l-955 0.000976562v90c-31.333 -34 -71 -59.5 -119 -76.5s-95.667 -25.5 -143 -25.5c-53.333 0 -102.833 5.5 -148.5 16.5s-88.334 28 -128.001 51s-76.5 51.5 -110.5 85.5c-34.667 36.667 -61.834 75.667 -81.501 117s-33.667 84.166 -42 128.499
s-13.666 92.166 -15.999 143.499s-3.5 117.666 -3.5 198.999s1.16699 147.833 3.5 199.5s7.66602 99.334 15.999 143.001s22.5 86.834 42.5 129.501s47 81.334 81 116.001c33.333 33.333 70 61.666 110 84.999s82.833 40.5 128.5 51.5s95.167 16.5 148.5 16.5
c48.667 0 96.334 -8.16699 143.001 -24.5s86.334 -42.166 119.001 -77.499v90h953v-252h-670c0 -38.667 0.166992 -77 0.5 -115l1 -115c0.333008 -38.667 0.5 -77.334 0.5 -116.001h569v-250h-569c0 -69.333 -0.166992 -131.333 -0.5 -186s-0.833008 -112 -1.5 -172h672
v-252zM913 729.001c0 90.667 -2.16797 162.669 -6.50098 216.002s-11.333 93.333 -21 120s-24.167 51.334 -43.5 74.001c-19.333 23.333 -45.166 42.166 -77.499 56.499s-67.5 21.5 -105.5 21.5c-36 0 -70.333 -7 -103 -21s-59.667 -33 -81 -57
c-19.333 -22.667 -33.666 -47.167 -42.999 -73.5s-16 -66.333 -20 -120s-6 -125.834 -6 -216.501s2 -162.667 6 -216s10.667 -93.333 20 -120s23.666 -51.334 42.999 -74.001c44.667 -51.333 106 -77 184 -77c77.333 0 138.333 25.667 183 77
c19.333 22.667 33.833 47.5 43.5 74.5s16.667 66.833 21 119.5s6.5 124.667 6.5 216z" />
    <glyph glyph-name="oe" unicode="&#x153;" horiz-adv-x="1767" 
d="M1671 451l-666.996 -0.000976562c0 -70 20.667 -127.167 62 -171.5s98.333 -66.5 171 -66.5c56.667 0 101.667 7.83301 135 23.5s68.333 41.167 105 76.5l163 -157c-58 -58 -117.333 -100.5 -178 -127.5s-136.334 -40.5 -227.001 -40.5
c-156.667 0 -275.334 45 -356.001 135c-34.667 -42 -79.834 -75 -135.501 -99s-118.5 -36 -188.5 -36c-137.333 0 -247.333 43.667 -330 131c-23.333 24 -42.666 49.667 -57.999 77s-27.833 58 -37.5 92s-16.334 72.833 -20.001 116.5s-5.5 87.167 -5.5 130.5
c0 44 1.83301 87.5 5.5 130.5s10.167 81 19.5 114s21.833 63.333 37.5 91s35.167 53.5 58.5 77.5c82.667 87.333 192.667 131 330 131c47.333 0 92.5 -6 135.5 -18s80.333 -28.333 112 -49s59.167 -45.334 82.5 -74.001c24 29.333 53 54.833 87 76.5
s70.167 37.834 108.5 48.501s80.166 16 125.499 16c96 0 179.167 -21.667 249.5 -65s123.833 -104.166 160.5 -182.499s55 -165.833 55 -262.5v-118zM1407 632.999c-2 46 -9.66797 84.332 -23.001 114.999c-14.667 32.667 -37.167 59.167 -67.5 79.5
s-67.166 30.5 -110.499 30.5c-42.667 0 -79.5 -10 -110.5 -30s-54.167 -46.667 -69.5 -80c-12.667 -31.333 -20 -69.666 -22 -114.999h403zM741.003 534.998c0 67.333 -3.83301 120.835 -11.5 160.502s-24.167 72.167 -49.5 97.5c-32.667 31.333 -74.334 47 -125.001 47
c-49.333 0 -90.333 -15.667 -123 -47c-25.333 -26.667 -41.833 -60.5 -49.5 -101.5s-11.5 -93.167 -11.5 -156.5c0 -64 3.83301 -116.833 11.5 -158.5s24.167 -75.834 49.5 -102.501c32.667 -31.333 73.667 -47 123 -47c50.667 0 92.334 15.667 125.001 47
c25.333 25.333 41.833 58.166 49.5 98.499s11.5 94.5 11.5 162.5z" />
    <glyph glyph-name="Scaron" unicode="&#x160;" horiz-adv-x="1210" 
d="M1112 430c0 -91.333 -23.499 -170.498 -70.499 -237.498s-112 -117.833 -195 -152.5s-174.833 -52 -275.5 -52c-57.333 0 -110.666 3.5 -159.999 10.5s-94.5 17.5 -135.5 31.5s-81.667 33.5 -122 58.5s-78.5 55.5 -114.5 91.5l184 185
c81.333 -82 198.666 -123 351.999 -123c84 0 148.167 15.5 192.5 46.5s66.5 75.5 66.5 133.5c0 53.333 -15.333 94.333 -46 123c-27.333 25.333 -70.333 42.333 -129 51l-176 25c-124 18 -218 58 -282 120c-70 70 -105 165.667 -105 287c0 132 45.833 238.667 137.5 320
s215.167 122 370.5 122c102.667 0 191.667 -13.5 267 -40.5s143.333 -70.167 204 -129.5l-180 -178c-41.333 39.333 -86.5 66 -135.5 80s-103.5 21 -163.5 21c-72.667 0 -128.334 -17.333 -167.001 -52s-58 -79 -58 -133c0 -42.667 14.333 -77.334 43 -104.001
c31.333 -30 76.333 -49 135 -57l172 -25c124 -16.667 216.667 -54.334 278 -113.001c75.333 -70.667 113 -173.667 113 -309zM979.001 1945l-271 -346h-212l-271 346h207l170 -184l170 184h207z" />
    <glyph glyph-name="scaron" unicode="&#x161;" horiz-adv-x="1026" 
d="M952 336c0 -113.333 -42.168 -199.666 -126.501 -258.999s-192.833 -89 -325.5 -89c-64.667 0 -122 3.66699 -172 11s-99 22.166 -147 44.499s-93.333 54.833 -136 97.5l174 174c66.667 -66.667 161.667 -100 285 -100c50.667 0 94.667 9.16699 132 27.5
s56 46.166 56 83.499c0 58 -37.333 90.667 -112 98l-168 16c-101.333 10.667 -178.666 39.667 -231.999 87s-80 118 -80 212c0 106 39.833 189.167 119.5 249.5s177.167 90.5 292.5 90.5c183.333 0 319.333 -41.667 408 -125l-164 -166c-53.333 48 -136 72 -248 72
c-50 0 -87.833 -9.66699 -113.5 -29s-38.5 -43.666 -38.5 -72.999c0 -55.333 37 -86 111 -92l168 -17c70 -7.33301 128.5 -24 175.5 -50s82.333 -61.5 106 -106.5s35.5 -97.167 35.5 -156.5zM888.999 1583l-271 -346h-212l-271 346h207l170 -184l170 184h207z" />
    <glyph glyph-name="Ydieresis" unicode="&#x178;" horiz-adv-x="1171" 
d="M1165 1458l-438 -860v-598h-283v598l-438 860h309l273 -588l268 588h309zM953 1728c0 -38 -13.333 -70.333 -40 -97s-59.334 -40 -98.001 -40c-38 0 -70.333 13.667 -97 41s-40 59.333 -40 96s13.333 68.667 40 96s59 41 97 41c38.667 0 71.334 -13.333 98.001 -40
s40 -59 40 -97zM490 1728c0 -38 -13.333 -70.333 -40 -97s-59 -40 -97 -40s-70.5 13.5 -97.5 40.5s-40.5 59.167 -40.5 96.5s13.5 69.5 40.5 96.5s59.5 40.5 97.5 40.5s70.333 -13.333 97 -40s40 -59 40 -97z" />
    <glyph glyph-name="florin" unicode="&#x192;" horiz-adv-x="874" 
d="M813 1249l-141.001 0.000976562c-63.333 0 -100.333 -32 -111 -96l-59 -340h196v-205h-231l-178 -999h-266l178 999h-138v205h173l63 356c16 85.333 54.833 157.666 116.5 216.999s143.834 89 246.501 89l151 -2v-224z" />
    <glyph glyph-name="circumflex" unicode="&#x2c6;" horiz-adv-x="1024" 
d="M889 1237h-207l-170 186l-170 -186h-207l271 346h212z" />
    <glyph glyph-name="tilde" unicode="&#x2dc;" horiz-adv-x="1024" 
d="M881 1380c-44.667 -44.667 -84.6689 -75.833 -120.002 -93.5s-72.666 -26.5 -111.999 -26.5c-26.667 0 -51.5 3.5 -74.5 10.5s-50.5 19.167 -82.5 36.5c-42.667 24 -81 36 -115 36c-21.333 0 -40.833 -3.83301 -58.5 -11.5s-38.5 -23.5 -62.5 -47.5l-115 117
c44 44 83.333 75.167 118 93.5s72 27.5 112 27.5c31.333 0 58 -3.33301 80 -10s47.667 -19 77 -37c40.667 -24.667 78.334 -37 113.001 -37c20 0 39.167 3.83301 57.5 11.5s39.5 23.5 63.5 47.5z" />
    <glyph glyph-name="emdash" unicode="&#x2013;" 
d="M1010 461h-908v248h908v-248z" />
    <glyph glyph-name="endash" unicode="&#x2014;" horiz-adv-x="2103" 
d="M1982 463h-1861v256h1861v-256z" />
    <glyph glyph-name="quoteleft" unicode="&#x2018;" horiz-adv-x="559" 
d="M418 1206h-279v252l279 215v-467z" />
    <glyph glyph-name="quoteright" unicode="&#x2019;" horiz-adv-x="559" 
d="M418 1204l-279 -211v465h279v-254z" />
    <glyph glyph-name="quotesinglbase" unicode="&#x201a;" horiz-adv-x="555" 
d="M418 0l-279 -213v467h279v-254z" />
    <glyph glyph-name="quotedblleft" unicode="&#x201c;" horiz-adv-x="987" 
d="M848 1206h-279v252l279 215v-467zM416 1206h-277v252l277 215v-467z" />
    <glyph glyph-name="quotedblright" unicode="&#x201d;" horiz-adv-x="987" 
d="M848 1204l-279 -211v465h279v-254zM416 1204l-277 -211v465h277v-254z" />
    <glyph glyph-name="quotedblbase" unicode="&#x201e;" horiz-adv-x="993" 
d="M848 0l-279 -213v467h279v-254zM416 0l-277 -213v467h277v-254z" />
    <glyph glyph-name="dagger" unicode="&#x2020;" horiz-adv-x="1186" 
d="M1069 840h-344v-840h-266v840h-342v239h342v379h266v-379h344v-239z" />
    <glyph glyph-name="daggerdbl" unicode="&#x2021;" horiz-adv-x="1186" 
d="M1069 -12h-344v-379h-266v379h-342v239h342v613h-342v239h342v379h266v-379h344v-239h-344v-613h344v-239z" />
    <glyph glyph-name="bullet" unicode="&#x2022;" horiz-adv-x="1010" 
d="M838 684c0 -46 -8.66797 -89.1689 -26.001 -129.502s-41.166 -75.666 -71.499 -105.999s-66.333 -54.333 -108 -72s-84.5 -26.5 -128.5 -26.5c-92 0 -170.667 32.667 -236 98s-98 144 -98 236c0 60 15 115.833 45 167.5s70.833 92.334 122.5 122.001
s107.167 44.5 166.5 44.5c46 0 89.5 -8.66699 130.5 -26s76.5 -41 106.5 -71s53.667 -65.5 71 -106.5s26 -84.5 26 -130.5z" />
    <glyph glyph-name="ellipsis" unicode="&#x2026;" horiz-adv-x="1733" 
d="M1610 172c0 -48 -17.333 -89.667 -52 -125s-76.667 -53 -126 -53c-48.667 0 -90.667 17.667 -126 53s-53 77 -53 125c0 31.333 8 60.833 24 88.5s37.833 49.5 65.5 65.5s57.5 24 89.5 24c31.333 0 60.833 -8 88.5 -24s49.5 -37.833 65.5 -65.5s24 -57.167 24 -88.5z
M1044 172c0 -48 -17.333 -89.667 -52 -125s-76.667 -53 -126 -53c-48 0 -89.667 17.667 -125 53s-53 77 -53 125c0 49.333 17.667 91.333 53 126s77 52 125 52c32 0 61.5 -7.83301 88.5 -23.5s48.667 -37.5 65 -65.5s24.5 -57.667 24.5 -89zM481 172
c0 -32 -8.16699 -61.667 -24.5 -89s-38.5 -49 -66.5 -65s-57.667 -24 -89 -24c-48 0 -89.667 17.667 -125 53s-53 77 -53 125c0 49.333 17.667 91.333 53 126s77 52 125 52c31.333 0 61 -8 89 -24s50.167 -37.667 66.5 -65s24.5 -57 24.5 -89z" />
    <glyph glyph-name="perthousand" unicode="&#x2030;" horiz-adv-x="2480" 
d="M2372 268c0 -88.667 -28.498 -157.5 -85.498 -206.5s-127.5 -73.5 -211.5 -73.5c-84.667 0 -155.334 24.667 -212.001 74s-85 118 -85 206v203c0 88 28.167 156.833 84.5 206.5s127.166 74.5 212.499 74.5c53.333 0 102.833 -11 148.5 -33s81.834 -54 108.5 -96
c26.667 -42 40 -92.667 40 -152v-203zM1630 268c0 -88.667 -28.498 -157.501 -85.498 -206.501s-127.5 -73.5 -211.5 -73.5c-84.667 0 -155.334 24.667 -212.001 74s-85 118 -85 206v203c0 88 28.167 156.833 84.5 206.5s127.166 74.5 212.499 74.5
c54 0 103.667 -10.833 149 -32.5s81.333 -53.667 108 -96s40 -93.166 40 -152.499v-203zM1319 1458l-690 -1458h-209l690 1458h209zM700.004 986.999c0 -88.667 -28.5 -157.5 -85.5 -206.5s-127.5 -73.5 -211.5 -73.5c-84.667 0 -155.334 24.667 -212.001 74
s-85 118 -85 206v203c0 88 28.333 156.667 85 206s127.334 74 212.001 74c84 0 154.5 -24.5 211.5 -73.5s85.5 -117.833 85.5 -206.5v-203zM2179 273.999v189c0 38 -9 67 -27 87s-43.667 30 -77 30c-70 0 -105 -39 -105 -117v-187c0 -77.333 35 -116 105 -116
c69.333 0 104 38 104 114zM1438 275.999v187c0 38 -9.16699 67 -27.5 87s-44.166 30 -77.499 30c-69.333 0 -104 -39 -104 -117v-187c0 -77.333 34.667 -116 104 -116c33.333 0 59.166 10 77.499 30s27.5 48.667 27.5 86zM508.004 994.999l0.000976562 187
c0 38 -9 66.833 -27 86.5s-44 29.5 -78 29.5c-69.333 0 -104 -38.667 -104 -116v-187c0 -37.333 9.16699 -66 27.5 -86s43.833 -30 76.5 -30c33.333 0 59.166 10 77.499 30s27.5 48.667 27.5 86z" />
    <glyph glyph-name="guilsinglleft" unicode="&#x2039;" horiz-adv-x="717" 
d="M580 55l-510 508l510 508v-317l-193 -191l193 -190v-318z" />
    <glyph glyph-name="guilsinglright" unicode="&#x203a;" horiz-adv-x="717" 
d="M647 563l-510 -508v318l195 190l-195 191v317z" />
    <glyph glyph-name="trademark" unicode="&#x2122;" horiz-adv-x="1892" 
d="M1761 584h-194v516l-164 -322h-172l-164 322v-516h-195v874h195l250 -467l250 467h194v-874zM737 1284h-225v-700h-195v700h-225v174h645v-174z" />
    <glyph glyph-name="periodcentered" unicode="&#x2219;" horiz-adv-x="604" 
d="M481 582c0 -32.667 -8.16699 -62.667 -24.5 -90s-38.5 -49 -66.5 -65s-57.667 -24 -89 -24c-48 0 -89.667 17.667 -125 53s-53 77.333 -53 126c0 31.333 8 61 24 89s37.667 50.167 65 66.5s57 24.5 89 24.5s61.833 -8.16699 89.5 -24.5s49.667 -38.333 66 -66
s24.5 -57.5 24.5 -89.5z" />
    <glyph glyph-name=".null" horiz-adv-x="0" 
 />
    <glyph glyph-name="nonmarkingreturn" horiz-adv-x="0" 
 />
    <glyph glyph-name="Lslash" horiz-adv-x="1214" 
d="M1153 0h-946v500l-131 -84v237l131 84v721h285v-543l262 166v-235l-262 -166v-426h661v-254z" />
    <glyph glyph-name="lslash" horiz-adv-x="688" 
d="M633 0l-151.999 0.000976562c-68.667 0 -126.334 14.333 -173.001 43s-81 66.167 -103 112.5s-33 96.166 -33 149.499v313l-111 -67v223l111 70v614h266v-454l123 75v-223l-123 -78v-456c0 -64.667 30.667 -97 92 -97h103v-225z" />
    <glyph glyph-name="Zcaron" horiz-adv-x="1122" 
d="M1040 0h-958v229l623 975h-596v254h931v-225l-624 -979h624v-254zM944 1945l-271 -346h-212l-271 346h207l170 -184l170 184h207z" />
    <glyph glyph-name="zcaron" horiz-adv-x="979" 
d="M889 0h-813v203l473 624h-447v240h787v-203l-479 -624h479v-240zM873 1583l-271 -346h-212l-271 346h207l170 -184l170 184h207z" />
    <glyph glyph-name="notequal" horiz-adv-x="1233" 
d="M1130 238h-655l-211 -265l-162 127l113 138h-113v249h306l159 195h-465v250h656l211 264l161 -127l-112 -137h112v-250h-303l-159 -195h462v-249z" />
    <glyph glyph-name="infinity" horiz-adv-x="1743" 
d="M1630 582c0 -72.667 -14.998 -138.168 -44.998 -196.501s-74.333 -104.333 -133 -138s-129 -50.5 -211 -50.5c-134.667 0 -258.334 64 -371.001 192c-112 -128 -234.667 -192 -368 -192c-82 0 -152.333 16.833 -211 50.5s-103 79.667 -133 138s-45 123.833 -45 196.5
c0 72 15 137.833 45 197.5s74.167 106.5 132.5 140.5s128.833 51 211.5 51c69.333 0 134.666 -17.167 195.999 -51.5s118.666 -82.166 171.999 -143.499c114.667 130 238.334 195 371.001 195c82.667 0 153.167 -17 211.5 -51s102.5 -80.833 132.5 -140.5
s45 -125.5 45 -197.5zM1372 574.999c0 41.333 -12.834 74 -38.501 98s-57.167 36 -94.5 36c-32.667 0 -61.667 -10.333 -87 -31s-58.333 -55 -99 -103c42 -49.333 75.333 -83.833 100 -103.5s53.334 -29.5 86.001 -29.5c36.667 0 68 12 94 36s39 56.333 39 97z
M690.001 574.999c-36.667 45.333 -68.833 79.333 -96.5 102s-58.167 34 -91.5 34c-36.667 0 -67.667 -12.667 -93 -38s-38 -58 -38 -98s12.667 -72.167 38 -96.5s56.333 -36.5 93 -36.5c32.667 0 62.667 10.667 90 32s60 55 98 101z" />
    <glyph glyph-name="lessequal" horiz-adv-x="2103" 
d="M1810 1077l-1017 -1018l942 2l-238 -235h-1118v1116l237 238l-2 -942l1018 1017z" />
    <glyph glyph-name="greaterequal" horiz-adv-x="2103" 
d="M1722 -174h-1116l-237 235l942 -4l-1020 1020l178 178l1020 -1019l-4 942l237 -238v-1114z" />
    <glyph glyph-name="partialdiff" horiz-adv-x="1137" 
d="M987 520c0 -99.333 -8.16699 -179.832 -24.5 -241.499s-47.166 -116.167 -92.499 -163.5c-78.667 -84.667 -185 -127 -319 -127c-132 0 -238 42.333 -318 127c-44 46.667 -74.667 101.5 -92 164.5s-26 143.167 -26 240.5c0 99.333 8.66699 180.5 26 243.5
s48 117.833 92 164.5c78 82 180.667 123 308 123c75.333 0 134.666 -20 177.999 -60v56c0 47.333 -17 92.166 -51 134.499s-88 63.5 -162 63.5c-84 0 -153.667 -27.333 -209 -82l-166 168c53.333 51.333 110 87.333 170 108s132.333 31 217 31
c78 0 146.167 -11.667 204.5 -35s107 -56.5 146 -99.5s68.5 -94.5 88.5 -154.5s30 -125.333 30 -196v-465zM721 520.001c0 64 -3.66504 115.333 -10.998 154s-22 69.334 -44 92.001c-30 30 -68.333 45 -115 45s-85 -15 -115 -45c-22 -24 -36.667 -56.167 -44 -96.5
s-11 -90.166 -11 -149.499c0 -58.667 3.66699 -108.5 11 -149.5s22 -73.833 44 -98.5c31.333 -30 69.666 -45 114.999 -45s83.666 15 114.999 45c22 23.333 36.667 54.666 44 93.999s11 90.666 11 153.999z" />
    <glyph glyph-name="summation" horiz-adv-x="1130" 
d="M1055 -391h-973v225l387 770l-381 727v225h959v-253h-627l289 -572v-264l-299 -604h645v-254z" />
    <glyph glyph-name="product" horiz-adv-x="1403" 
d="M1233 -391h-285v1696h-493v-1696h-285v1947h1063v-1947z" />
    <glyph glyph-name="pi" horiz-adv-x="1212" 
d="M1055 0h-264v817h-369v-817h-266v1067h899v-1067z" />
    <glyph glyph-name="integral" horiz-adv-x="1004" 
d="M887 1260h-101c-46 0 -81.667 -12 -107 -36s-38 -60.667 -38 -110v-1124c0 -118 -35.667 -209.333 -107 -274s-166 -97 -284 -97h-133v225h100c96.667 0 145 48 145 144v1124c0 117.333 35.5 208.833 106.5 274.5s166.167 98.5 285.5 98.5h133v-225z" />
    <glyph glyph-name="Omega" horiz-adv-x="1319" 
d="M1198 0h-448.001v223c48.667 22.667 85.334 52.667 110.001 90c19.333 28.667 33 72.167 41 130.5s12 148.833 12 271.5c0 139.333 -5 236.666 -15 291.999s-28.667 98.666 -56 129.999c-46.667 53.333 -107.667 80 -183 80c-76 0 -137.333 -26.667 -184 -80
c-18 -21.333 -31.833 -46.666 -41.5 -75.999s-16.667 -71.5 -21 -126.5s-6.5 -128.167 -6.5 -219.5c0 -76.667 1.83301 -142.667 5.5 -198s9.33398 -98 17.001 -128s17.834 -55.333 30.501 -76c24.667 -37.333 61.334 -67.333 110.001 -90v-223h-448v252h121
c-32.667 34.667 -57.334 72.334 -74.001 113.001c-18.667 46 -31.167 99.5 -37.5 160.5s-9.5 128.833 -9.5 203.5c0 106.667 2.33301 190.5 7 251.5s17.167 119.667 37.5 176s53.166 107.833 98.499 154.5c54 52.667 113.167 92.334 177.5 119.001s136.833 40 217.5 40
c155.333 0 286.666 -53 393.999 -159c44.667 -46 77.667 -97.333 99 -154s34.333 -115.5 39 -176.5s7 -144.833 7 -251.5c0 -44.667 -1.16699 -89.167 -3.5 -133.5s-7.16602 -86.833 -14.499 -127.5s-17 -75 -29 -103c-16.667 -40.667 -41.334 -78.334 -74.001 -113.001h121
v-252z" />
    <glyph glyph-name="radical" horiz-adv-x="1221" 
d="M1159 1204h-188l-398 -1204h-215l-352 1067h289l172 -559l293 950h399v-254z" />
    <glyph glyph-name="approxequal" horiz-adv-x="1241" 
d="M1165 805c-63.333 -63.333 -120.169 -108.501 -170.502 -135.501s-106.166 -40.5 -167.499 -40.5c-42 0 -81 5.16699 -117 15.5s-76.667 27.5 -122 51.5c-63.333 32.667 -119.333 49 -168 49c-32 0 -60.333 -5.33301 -85 -16s-55 -34 -91 -70l-168 168
c42.667 42.667 81.334 76.834 116.001 102.501s70 44.5 106 56.5s74 18 114 18c74.667 0 154.334 -22.667 239.001 -68c36 -18 65.833 -31 89.5 -39s49.167 -12 76.5 -12c31.333 0 60.166 5.83301 86.499 17.5s56.833 35.167 91.5 70.5zM1165 341.999
c-64 -64 -120.502 -109.333 -169.502 -136s-104.5 -40 -166.5 -40c-42 0 -81 5.16699 -117 15.5s-76.667 27.5 -122 51.5c-67.333 34.667 -122.666 52 -165.999 52c-31.333 0 -60 -5.83301 -86 -17.5s-56.667 -35.167 -92 -70.5l-170 168
c65.333 65.333 122.833 111 172.5 137s105.5 39 167.5 39c41.333 0 80 -5.16699 116 -15.5s76.333 -27.833 121 -52.5c36.667 -18 67.334 -30.667 92.001 -38s50 -11 76 -11c30.667 0 59.167 5.66699 85.5 17s56.5 34.333 90.5 69z" />
    <glyph glyph-name="Delta" horiz-adv-x="1298" 
d="M1292 0h-1286l533 1458h221zM922 240l-267 788l-274 -788h541z" />
    <glyph glyph-name="lozenge" horiz-adv-x="1303" 
d="M1190 698l-539 -751l-538 751l538 750zM891 698l-240 336l-239 -336l239 -338z" />
    <glyph glyph-name="fraction" horiz-adv-x="426" 
d="M662 1458l-691 -1458h-207l691 1458h207z" />
    <glyph glyph-name="fi" horiz-adv-x="1233" 
d="M1116 1368c0 -46.667 -15.999 -86.334 -47.999 -119.001s-71.333 -49 -118 -49c-46 0 -85.167 16.5 -117.5 49.5s-48.5 72.5 -48.5 118.5s16.167 85.167 48.5 117.5s71.5 48.5 117.5 48.5c24 0 45.833 -4.16699 65.5 -12.5s37.167 -20.166 52.5 -35.499
s27.166 -32.833 35.499 -52.5s12.5 -41.5 12.5 -65.5zM1083 0h-266v1036h266v-1036zM637.001 834h-197v-834h-266v834h-111v202h111v133c0 54 11.167 104.167 33.5 150.5s56.833 83.833 103.5 112.5s104 43 172 43h154v-226h-105c-61.333 0 -92 -32 -92 -96v-117h197v-202z
" />
    <glyph glyph-name="fl" horiz-adv-x="1327" 
d="M1278 0h-152c-101.333 -0 -178.5 29.833 -231.5 89.5s-79.5 131.5 -79.5 215.5v1153h266v-1136c0 -64.667 31.667 -97 95 -97h102v-225zM637 834h-197.002v-834h-266v834h-111v202h111v133c0 54 11.333 104.167 34 150.5s57.334 83.833 104.001 112.5
s104.334 43 173.001 43h152v-226h-102c-63.333 0 -95 -32 -95 -96v-117h197v-202z" />
    <glyph glyph-name="dotlessi" horiz-adv-x="563" 
d="M416 0h-266v1067h266v-1067z" />
    <glyph glyph-name="breve" horiz-adv-x="1024" 
d="M848 1520c-4.66699 -105.333 -37.667 -183.332 -99 -233.999s-139.666 -76 -234.999 -76s-174.333 25.667 -237 77s-96.334 129 -101.001 233h180c6 -42 23.333 -73 52 -93s64 -30 106 -30c41.333 0 76.5 10.167 105.5 30.5s45.833 51.166 50.5 92.499h178z" />
    <glyph glyph-name="dotaccent" horiz-adv-x="1024" 
d="M649 1245h-274v217h274v-217z" />
    <glyph glyph-name="ring" horiz-adv-x="1024" 
d="M780 1464c0 -73.333 -26 -136.333 -78 -189s-115.333 -79 -190 -79c-73.333 0 -136.333 26.333 -189 79s-79 115.667 -79 189c0 74 26.333 137.333 79 190s115.667 79 189 79c74 0 137.167 -26.167 189.5 -78.5s78.5 -115.833 78.5 -190.5zM631 1464
c0 34 -11.333 62.333 -34 85s-51 34 -85 34s-62.333 -11.333 -85 -34s-34 -51 -34 -85c0 -33.333 11.5 -61.833 34.5 -85.5s51.167 -35.5 84.5 -35.5s61.5 11.833 84.5 35.5s34.5 52.167 34.5 85.5z" />
    <glyph glyph-name="hungarumlaut" horiz-adv-x="1024" 
d="M952 1585l-235 -348h-176l129 348h282zM528 1585l-233 -348h-178l129 348h282z" />
    <glyph glyph-name="ogonek" horiz-adv-x="1024" 
d="M684 -422h-248l-90 299h199z" />
    <glyph glyph-name="caron" horiz-adv-x="1024" 
d="M889 1583l-271 -346h-212l-271 346h207l170 -184l170 184h207z" />
  </font>
</defs>
</svg>
